Вы используете незарегистрированную версию компонента "Вкладки"!

Поиск

(avant-garde jazz/jazz-rock/modern creative) Circum Grand Orchestra - Circum Grand Orchestra - 2005, (tracks+.cue), lossless

(avant-garde jazz/jazz-rock/modern creative) Circum Grand Orchestra - Circum Grand Orchestra - 2005, (tracks+.cue), lossless
Треклист:
Circum Grand Orchestra / Circum Grand Orchestra
Жанр: avant-garde jazz/jazz-rock/modern creative
Страна-производитель диска: France
Год издания диска: 2005
Издатель (лейбл): Circum-Disc
Номер по каталогу: CIDI501
Страна: France
Аудиокодек: FLAC (*.flac)
Тип рипа: tracks+.cue
Битрейт аудио: lossless
Продолжительность: 60:02
Источник (релизер): Собственный рип
Наличие сканов в содержимом раздачи: да
Треклист:
1. tenko
2. jeu de piste
3. ouverture
4. l`air du poilu
partie 1 - la blessure
partie 2 - la traversee
5. debout
6. process access
7. lenticularis
8. penthotal
9. uncinus
 
Лог создания рипа
Exact Audio Copy V1.0 beta 3 from 29. August 2011
EAC extraction logfile from 14. February 2012, 18:59
Circum Grand Orchestra / Circum Grand Orchestra
Used drive : Optiarc DVD RW AD-7243S Adapter: 0 ID: 1
Read mode : Secure
Utilize accurate stream : Yes
Defeat audio cache : Yes
Make use of C2 pointers : No
Read offset correction : 48
Overread into Lead-In and Lead-Out : No
Fill up missing offset samples with silence : Yes
Delete leading and trailing silent blocks : No
Null samples used in CRC calculations : Yes
Used interface : Native Win32 interface for Win NT & 2000
Gap handling : Appended to previous track
Used output format : User Defined Encoder
Selected bitrate : 128 kBit/s
Quality : High
Add ID3 tag : No
Command line compressor : C:\Program Files\Exact Audio Copy\FLAC\FLAC.EXE
Additional command line options : V -8 -T "Date=%year%" -T "Genre=%genre%" %source%
TOC of the extracted CD
Track | Start | Length | Start sector | End sector
---------------------------------------------------------
1 | 0:00.00 | 14:57.02 | 0 | 67276
2 | 14:57.02 | 8:18.60 | 67277 | 104686
3 | 23:15.62 | 4:27.17 | 104687 | 124728
4 | 27:43.04 | 7:11.26 | 124729 | 157079
5 | 34:54.30 | 5:33.60 | 157080 | 182114
6 | 40:28.15 | 4:38.02 | 182115 | 202966
7 | 45:06.17 | 4:13.00 | 202967 | 221941
8 | 49:19.17 | 6:20.49 | 221942 | 250490
9 | 55:39.66 | 4:22.51 | 250491 | 270191
Track 1
Filename C:\Documents and Settings\S\Мои документы\Torrent раздача\01 Tenko.wav
Pre-gap length 0:00:02.00
Peak level 100.0 %
Extraction speed 2.8 X
Track quality 99.9 %
Test CRC 4A55E2D0
Copy CRC 4A55E2D0
Track not present in AccurateRip database
Copy OK
Track 2
Filename C:\Documents and Settings\S\Мои документы\Torrent раздача\02 Jeu De Piste.wav
Pre-gap length 0:00:05.20
Peak level 100.0 %
Extraction speed 3.5 X
Track quality 100.0 %
Test CRC 4977CDD2
Copy CRC 4977CDD2
Track not present in AccurateRip database
Copy OK
Track 3
Filename C:\Documents and Settings\S\Мои документы\Torrent раздача\03 Ouverture.wav
Pre-gap length 0:00:04.71
Peak level 100.0 %
Extraction speed 3.2 X
Track quality 99.9 %
Test CRC 4F47EBA2
Copy CRC 4F47EBA2
Track not present in AccurateRip database
Copy OK
Track 4
Filename C:\Documents and Settings\S\Мои документы\Torrent раздача\04 L`Air Ou Poilu.wav
Pre-gap length 0:00:03.54
Peak level 100.0 %
Extraction speed 4.0 X
Track quality 100.0 %
Test CRC 748DB6FC
Copy CRC 748DB6FC
Track not present in AccurateRip database
Copy OK
Track 5
Filename C:\Documents and Settings\S\Мои документы\Torrent раздача\05 Debout.wav
Pre-gap length 0:00:02.74
Peak level 100.0 %
Extraction speed 4.2 X
Track quality 100.0 %
Test CRC 2EB96CD0
Copy CRC 2EB96CD0
Track not present in AccurateRip database
Copy OK
Track 6
Filename C:\Documents and Settings\S\Мои документы\Torrent раздача\06 Process Access.wav
Pre-gap length 0:00:01.21
Peak level 100.0 %
Extraction speed 4.3 X
Track quality 100.0 %
Test CRC 24813B28
Copy CRC 24813B28
Track not present in AccurateRip database
Copy OK
Track 7
Filename C:\Documents and Settings\S\Мои документы\Torrent раздача\07 Lenticularis.wav
Pre-gap length 0:00:02.50
Peak level 100.0 %
Extraction speed 4.4 X
Track quality 100.0 %
Test CRC 90006162
Copy CRC 90006162
Track not present in AccurateRip database
Copy OK
Track 8
Filename C:\Documents and Settings\S\Мои документы\Torrent раздача\08 Penthotal.wav
Peak level 100.0 %
Extraction speed 4.8 X
Track quality 100.0 %
Test CRC DA7A2FC6
Copy CRC DA7A2FC6
Track not present in AccurateRip database
Copy OK
Track 9
Filename C:\Documents and Settings\S\Мои документы\Torrent раздача\09 Uncinus.wav
Pre-gap length 0:00:05.22
Peak level 100.0 %
Extraction speed 4.8 X
Track quality 100.0 %
Test CRC 1A8EDA41
Copy CRC 1A8EDA41
Track not present in AccurateRip database
Copy OK
None of the tracks are present in the AccurateRip database
No errors occurred
End of status report
==== Log checksum 07DA3B01FE3B716361FFAEDCF37FD6327D49FEE9505BF81B2DBCB8EE55527FA1 ====
 
Содержание индексной карты (.CUE)
REM GENRE "Avant-garde jazz"
REM DATE 2005
REM DISCID 8A0E1209
REM COMMENT "ExactAudioCopy v1.0b3"
PERFORMER "Circum Grand Orchestra"
TITLE "Circum Grand Orchestra"
FILE "01 Tenko.wav" WAVE
TRACK 01 AUDIO
TITLE "Tenko"
PERFORMER "Circum Grand Orchestra"
INDEX 01 00:00:00
TRACK 02 AUDIO
TITLE "Jeu De Piste"
PERFORMER "Circum Grand Orchestra"
INDEX 00 14:51:57
FILE "02 Jeu De Piste.wav" WAVE
INDEX 01 00:00:00
TRACK 03 AUDIO
TITLE "Ouverture"
PERFORMER "Circum Grand Orchestra"
INDEX 00 08:13:64
FILE "03 Ouverture.wav" WAVE
INDEX 01 00:00:00
TRACK 04 AUDIO
TITLE "L`Air Ou Poilu "
PERFORMER "Circum Grand Orchestra"
INDEX 00 04:23:38
FILE "04 L`Air Ou Poilu.wav" WAVE
INDEX 01 00:00:00
TRACK 05 AUDIO
TITLE "Debout"
PERFORMER "Circum Grand Orchestra"
INDEX 00 07:08:27
FILE "05 Debout.wav" WAVE
INDEX 01 00:00:00
TRACK 06 AUDIO
TITLE "Process Access"
PERFORMER "Circum Grand Orchestra"
INDEX 00 05:32:39
FILE "06 Process Access.wav" WAVE
INDEX 01 00:00:00
TRACK 07 AUDIO
TITLE "Lenticularis"
PERFORMER "Circum Grand Orchestra"
INDEX 00 04:35:27
FILE "07 Lenticularis.wav" WAVE
INDEX 01 00:00:00
FILE "08 Penthotal.wav" WAVE
TRACK 08 AUDIO
TITLE "Penthotal"
PERFORMER "Circum Grand Orchestra"
INDEX 01 00:00:00
TRACK 09 AUDIO
TITLE "Uncinus"
PERFORMER "Circum Grand Orchestra"
INDEX 00 06:15:27
FILE "09 Uncinus.wav" WAVE
INDEX 01 00:00:00
 
Состав
p. lemoine - sax
j. favreuille - sax
c. rocher - clarnette
c. motury - trompette, bugle, voix
c. pruvost - trompette, bugle
s. orins - piano
s. beaumont - guitare
o. benoit - guitare
c. hache - basse
n. mahieus - contrebasse
j.-l. landsweerot - batterie
p. orins - batterie
charlene martin - voix
Другие раздачи
http://rutracker.org/forum/search.php?uid=17163016
По всем вопросам пишите личное сообщение пользователю M0p94ok.
23:06
147
Нет комментариев. Ваш будет первым!