Вы используете незарегистрированную версию компонента "Вкладки"!

Поиск

(Avant-Garde Jazz/Hard Bop) John Coltrane - Living Space - 1965, FLAC (image+.cue), lossless

(Avant-Garde Jazz/Hard Bop) John Coltrane - Living Space - 1965, FLAC (image+.cue), lossless
Треклист:
John Coltrane - Living Space
Жанр: Avant-Garde Jazz/Hard Bop
Год выпуска диска: 1965
Производитель диска: EU
Аудио кодек: FLAC
Тип рипа: image+.cue
Битрейт аудио: lossless
Продолжительность: 51:19
Лейбл: Impulse!
Источник: NoNaMe
Трэклист:
1. Living Space
2. Untitled 90314
3. Dusk Dawn
4. Untitled 90320
5. Last Blues
Музыканты:
John Coltrane, tenor & soprano sax
McCoy Tyner, piano
Jimmy Garrison, bass
Elvin Jones, drums
 
Отчёт EAC
Exact Audio Copy V0.99 prebeta 3 from 28. July 2007
EAC extraction logfile from 23. October 2009, 13:25
John Coltrane / Living Space
Used drive : HL-DT-STDVD-RAM GSA-H55N Adapter: 0 ID: 0
Read mode : Secure
Utilize accurate stream : Yes
Defeat audio cache : Yes
Make use of C2 pointers : No
Read offset correction : 102
Overread into Lead-In and Lead-Out : No
Fill up missing offset samples with silence : Yes
Delete leading and trailing silent blocks : No
Null samples used in CRC calculations : No
Used interface : Installed external ASPI interface
Used output format : User Defined Encoder
Selected bitrate : 768 kBit/s
Quality : High
Add ID3 tag : No
Command line compressor : C:\Program Files\Exact Audio Copy\FLAC\FLAC.EXE
Additional command line options : -6 -V -T "ARTIST=%a" -T "TITLE=%t" -T "ALBUM=%g" -T "DATE=%y" -T "TRACKNUMBER=%n" -T "GENRE=%m" -T "COMMENT=%e" %s -o %d
TOC of the extracted CD
Track | Start | Length | Start sector | End sector
---------------------------------------------------------
1 | 0:00.32 | 10:26.03 | 32 | 46984
2 | 10:26.35 | 14:49.10 | 46985 | 113669
3 | 25:15.45 | 10:52.37 | 113670 | 162606
4 | 36:08.07 | 10:48.25 | 162607 | 211231
5 | 46:56.32 | 4:23.13 | 211232 | 230969
Range status and errors
Selected range
Filename C:\Users\Миша\Documents\John Coltrane - Living Space\John Coltrane - Living Space.wav
Peak level 99.9 %
Range quality 100.0 %
Copy CRC B39DD295
Copy OK
No errors occurred
AccurateRip summary
Track 1 cannot be verified as accurate (confidence 4) [CB4195B9], AccurateRip returned [B389F7CE]
Track 2 cannot be verified as accurate (confidence 4) [B1189EA8], AccurateRip returned [47EEAB0B]
Track 3 cannot be verified as accurate (confidence 4) [5A5AED24], AccurateRip returned [E23386B6]
Track 4 cannot be verified as accurate (confidence 4) [2C230DA0], AccurateRip returned [1B04C606]
Track 5 cannot be verified as accurate (confidence 4) [BA5FB30E], AccurateRip returned [B91A1CB4]
No tracks could be verified as accurate
You may have a different pressing from the one(s) in the database
End of status report
 
Audiochecker
AUDIOCHECKER v1.2 - by Dester - opdester@freemail.hu
~~~~~~~~~~~~~~~~~
1 -===- E:\Up-Down\John Coltrane - Living Space\John Coltrane - Living Space.flac
Extracted successfully
Conclusion: This track looks like CDDA with probability 100%
БИОГРАФИЯ и ДИСКОГРАФИЯ Джона Колтрейна
Any questions -> support@pro-jazz.com. По всем вопросам пишите -> support@pro-jazz.com
15:48
174
Нет комментариев. Ваш будет первым!