Вы используете незарегистрированную версию компонента "Вкладки"!

Поиск

(Avant-Garde Jazz/Future Jazz/Electronic) Baaba - W Akwarium - 2008, FLAC (image+.cue), lossless

(Avant-Garde Jazz/Future Jazz/Electronic) Baaba - W Akwarium - 2008, FLAC (image+.cue), lossless
Треклист:
Baaba / W Akwarium
Жанр: Avant-Garde Jazz/Future Jazz/Electronic
Страна-производитель диска: Poland
Год издания диска: 2008
Издатель (лейбл): Lado ABC
Номер по каталогу: Supported by/3
Страна: Poland
Аудиокодек: FLAC (*.flac)
Тип рипа: image+.cue
Битрейт аудио: lossless
Продолжительность: 45:32
Источник (релизер): интернет
Наличие сканов в содержимом раздачи: да
Треклист:
01. Shrinken (05:53)
02. Szczepan (05:20)
03. Dudek (06:07)
04. 12 (02:27)
05. Kapitan Sowa Na Tripie (01:54)
06. Bartok, Webern (08:09)
07. 15 Min. Break (Silence) (06:07)
08. Introduction (00:31)
09. 07 Zglos Sie (03:11)
10. Biegnij Kuba, Biegnij (05:33)
11. Losfer Journey (00:20)
Слушать Альбом
MySpace
Off. Site
 
Лог создания рипа
Exact Audio Copy V0.99 prebeta 5 from 4. May 2009
EAC extraction logfile from 2. September 2010, 22:50
Baaba / W Akwarium
Used drive : PLEXTOR DVDR PX-810SA Adapter: 1 ID: 0
Read mode : Secure
Utilize accurate stream : Yes
Defeat audio cache : Yes
Make use of C2 pointers : No
Read offset correction : 48
Overread into Lead-In and Lead-Out : No
Fill up missing offset samples with silence : Yes
Delete leading and trailing silent blocks : No
Null samples used in CRC calculations : Yes
Used interface : Installed external ASPI interface
Used output format : User Defined Encoder
Selected bitrate : 768 kBit/s
Quality : High
Add ID3 tag : No
Command line compressor : E:\Program Files\Exact Audio Copy\FLAC\FLAC.EXE
Additional command line options : --best -V -T "date=%y" -T "genre=%m" %s
TOC of the extracted CD
Track | Start | Length | Start sector | End sector
---------------------------------------------------------
1 | 0:00.00 | 5:53.13 | 0 | 26487
2 | 5:53.13 | 5:20.27 | 26488 | 50514
3 | 11:13.40 | 6:06.54 | 50515 | 78018
4 | 17:20.19 | 2:27.12 | 78019 | 89055
5 | 19:47.31 | 1:54.31 | 89056 | 97636
6 | 21:41.62 | 8:09.28 | 97637 | 134339
7 | 29:51.15 | 6:07.16 | 134340 | 161880
8 | 35:58.31 | 0:30.41 | 161881 | 164171
9 | 36:28.72 | 3:10.57 | 164172 | 178478
10 | 39:39.54 | 5:32.73 | 178479 | 203451
11 | 45:12.52 | 0:19.47 | 203452 | 204923
Range status and errors
Selected range
Filename E:\INCOMING\EAC\Baaba - W Akwarium.wav
Peak level 100.0 %
Range quality 100.0 %
Test CRC 519F3398
Copy CRC 519F3398
Copy OK
No errors occurred
End of status report
 
Об альбоме (сборнике)
Еще одни интересные поляки с концертным альбомом, записанным в варшавском клубе Akwarium 15 декабря 2007 года. Энергичный сплав экспериментального джаза и электроники, достаточно легкий для восприятия.
 
Состав
Bartosz Weber - guitar, sampler
Tomasz Duda - saxophones, flute, sampler
Macio Moretti - drums
Piotr Zabrodzki - bass, synths
Any questions -> support@pro-jazz.com. По всем вопросам пишите -> support@pro-jazz.com
17:09
161
Нет комментариев. Ваш будет первым!