Вы используете незарегистрированную версию компонента "Вкладки"!

Поиск

(avant-garde jazz/free jazz/ jazzcore) Go-Go Fightmaster - Go-Go Fightmaster - 2003, (image+.cue), lossless

Треклист:
Go-Go Fightmaster / Go-Go Fightmaster
Жанр: avant-garde jazz/free jazz/ jazzcore
Страна-производитель диска: USA
Год издания: 2003
Издатель (лейбл): ASBSound and Pax
Номер по каталогу: #PR90258
Страна: USA
Аудиокодек: FLAC (*.flac)
Тип рипа: image+.cue
Битрейт аудио: lossless
Источник (релизер): собственный рип
Наличие сканов в содержимом раздачи: да
Треклист:
1. buffy is dead
2. dream song
3. go-go fightmaster
4. no memory
5. newts in space
6. mistrophy
7. house carpenter
8. mac attack
9. the perfect man
Другие раздачи
http://rutracker.org/forum/search.php?uid=17163016
 
Лог создания рипа
Exact Audio Copy V1.0 beta 3 from 29. August 2011
EAC extraction logfile from 1. April 2012, 19:43
Go - Go Fightmaster / Go - Go Fightmasters
Used drive : Optiarc DVD RW AD-7243S Adapter: 0 ID: 1
Read mode : Secure
Utilize accurate stream : Yes
Defeat audio cache : Yes
Make use of C2 pointers : No
Read offset correction : 48
Overread into Lead-In and Lead-Out : No
Fill up missing offset samples with silence : Yes
Delete leading and trailing silent blocks : No
Null samples used in CRC calculations : Yes
Used interface : Native Win32 interface for Win NT & 2000
Used output format : User Defined Encoder
Selected bitrate : 128 kBit/s
Quality : High
Add ID3 tag : No
Command line compressor : C:\Program Files\Exact Audio Copy\FLAC\FLAC.EXE
Additional command line options : V -8 -T "Date=%year%" -T "Genre=%genre%" %source%
TOC of the extracted CD
Track | Start | Length | Start sector | End sector
---------------------------------------------------------
1 | 0:00.00 | 8:20.33 | 0 | 37532
2 | 8:20.33 | 5:23.51 | 37533 | 61808
3 | 13:44.09 | 3:43.70 | 61809 | 78603
4 | 17:28.04 | 8:11.54 | 78604 | 115482
5 | 25:39.58 | 5:43.67 | 115483 | 141274
6 | 31:23.50 | 4:32.44 | 141275 | 161718
7 | 35:56.19 | 3:07.43 | 161719 | 175786
8 | 39:03.62 | 7:46.22 | 175787 | 210758
9 | 46:50.09 | 6:35.23 | 210759 | 240406
Range status and errors
Selected range
Filename C:\Documents and Settings\S\Мои документы\Torrent раздача\Go - Go Fightmaster - Go - Go Fightmasters.wav
Peak level 97.7 %
Extraction speed 3.9 X
Range quality 100.0 %
Copy CRC 159F00B8
Copy OK
No errors occurred
AccurateRip summary
Track 1 not present in database
Track 2 not present in database
Track 3 not present in database
Track 4 not present in database
Track 5 not present in database
Track 6 not present in database
Track 7 not present in database
Track 8 not present in database
Track 9 not present in database
None of the tracks are present in the AccurateRip database
End of status report
==== Log checksum FACB8A3B4357F9CBFEBEC9F703DB39B7512973FE4B27A32A3184B594485DA5EB ====
 
Содержание индексной карты (.CUE)
REM GENRE Avantgarde
REM DATE 2003
REM DISCID 6B0C8509
REM COMMENT "ExactAudioCopy v1.0b3"
PERFORMER "Go - Go Fightmaster"
TITLE "Go - Go Fightmasters"
FILE "Go - Go Fightmaster - Go - Go Fightmasters.flac" WAVE
TRACK 01 AUDIO
TITLE "Buffy Is Dead"
PERFORMER "Go - Go Fightmaster"
INDEX 01 00:00:00
TRACK 02 AUDIO
TITLE "Dream Song"
PERFORMER "Go - Go Fightmaster"
INDEX 00 08:17:48
INDEX 01 08:20:33
TRACK 03 AUDIO
TITLE "Go-Go Fightmaster"
PERFORMER "Go - Go Fightmaster"
INDEX 00 13:42:24
INDEX 01 13:44:09
TRACK 04 AUDIO
TITLE "No Memory"
PERFORMER "Go - Go Fightmaster"
INDEX 01 17:28:04
TRACK 05 AUDIO
TITLE "Nets In Space"
PERFORMER "Go - Go Fightmaster"
INDEX 00 25:37:73
INDEX 01 25:39:58
TRACK 06 AUDIO
TITLE "Mistrophy"
PERFORMER "Go - Go Fightmaster"
INDEX 00 31:21:28
INDEX 01 31:23:50
TRACK 07 AUDIO
TITLE "House Carpenter"
PERFORMER "Go - Go Fightmaster"
INDEX 00 35:54:34
INDEX 01 35:56:19
TRACK 08 AUDIO
TITLE "Mac Attack"
PERFORMER "Go - Go Fightmaster"
INDEX 00 39:01:02
INDEX 01 39:03:62
TRACK 09 AUDIO
TITLE "The Perfect Man"
PERFORMER "Go - Go Fightmaster"
INDEX 00 46:48:24
INDEX 01 46:50:09
 
Состав
a. bennett - sax
j. finkbeiner - guitar, synth
a. lane - bass, vocas
v. anderson - drums
Any questions -> support@pro-jazz.com. По всем вопросам пишите -> support@pro-jazz.com
00:26
140
Нет комментариев. Ваш будет первым!