Вы используете незарегистрированную версию компонента "Вкладки"!

Поиск

(Avant-Garde Jazz/Free Jazz) Hal Russell - Hal's Bells {ECM 1484} - 1992, FLAC (image+.cue), lossless

Треклист:
Hal Russell - Hal's Bells
Жанр: Avant-Garde Jazz/Free Jazz
Год выпуска диска: 1992
Производитель диска: Germany
Аудио кодек: FLAC
Тип рипа: image+.cue
Битрейт аудио: lossless
Продолжительность: 52:58
Лейбл: ECM 1484
Источник: NoNaMe/mishka1981
Трэклист:
1. Buddhi
2. Millard Mottker
3. Portrait Of Benny
4. Strangest Kiss
5. Susanna
6. Carolina Moon
7. Kenny G.
8. I Need You Now
9. For Free
10. Moon Of Manakoora
Hal Russell - tenor & soprano saxophones, trumpet, musette, drums, vibraphone, bass marimba, congas, gongs, bells, percussion, voice
Доп. информация: На замену теме со статусом "сомнительно".
 
Отчёт EAC
Exact Audio Copy V0.99 prebeta 3 from 28. July 2007
EAC extraction logfile from 27. August 2010, 13:34
Hal Russell / Hal's Bells
Used drive : HL-DT-STDVD-RAM GSA-H55N Adapter: 0 ID: 0
Read mode : Secure
Utilize accurate stream : Yes
Defeat audio cache : Yes
Make use of C2 pointers : No
Read offset correction : 102
Overread into Lead-In and Lead-Out : No
Fill up missing offset samples with silence : Yes
Delete leading and trailing silent blocks : No
Null samples used in CRC calculations : No
Used interface : Installed external ASPI interface
Used output format : User Defined Encoder
Selected bitrate : 768 kBit/s
Quality : High
Add ID3 tag : No
Command line compressor : C:\Program Files\Exact Audio Copy\FLAC\FLAC.EXE
Additional command line options : -6 -V -T "ARTIST=%a" -T "TITLE=%t" -T "ALBUM=%g" -T "DATE=%y" -T "TRACKNUMBER=%n" -T "GENRE=%m" -T "COMMENT=%e" %s -o %d
TOC of the extracted CD
Track | Start | Length | Start sector | End sector
---------------------------------------------------------
1 | 0:00.33 | 4:17.05 | 33 | 19312
2 | 4:17.38 | 6:52.00 | 19313 | 50212
3 | 11:09.38 | 4:06.52 | 50213 | 68714
4 | 15:16.15 | 5:10.53 | 68715 | 92017
5 | 20:26.68 | 4:51.15 | 92018 | 113857
6 | 25:18.08 | 6:36.42 | 113858 | 143599
7 | 31:54.50 | 6:27.00 | 143600 | 172624
8 | 38:21.50 | 4:42.00 | 172625 | 193774
9 | 43:03.50 | 6:37.38 | 193775 | 223587
10 | 49:41.13 | 4:03.00 | 223588 | 241812
Range status and errors
Selected range
Filename C:\Users\Миша\Documents\Hal Russell - Hal's Bells\Hal Russell - Hal's Bells.wav
Peak level 99.9 %
Range quality 99.9 %
Copy CRC 15224F83
Copy OK
No errors occurred
AccurateRip summary
Track 1 cannot be verified as accurate (confidence 2) [D78590EA], AccurateRip returned [8799DE95]
Track 2 cannot be verified as accurate (confidence 2) [5FA4C61C], AccurateRip returned [977D9621]
Track 3 cannot be verified as accurate (confidence 2) [CF612C56], AccurateRip returned [012F853D]
Track 4 cannot be verified as accurate (confidence 2) [FC0B676F], AccurateRip returned [74C9FCA1]
Track 5 cannot be verified as accurate (confidence 2) [5AF64301], AccurateRip returned [18D3AE70]
Track 6 cannot be verified as accurate (confidence 2) [2589C064], AccurateRip returned [16368974]
Track 7 cannot be verified as accurate (confidence 2) [65E1ACBE], AccurateRip returned [5F9FB5E8]
Track 8 cannot be verified as accurate (confidence 2) [418DF2CB], AccurateRip returned [9A168D16]
Track 9 cannot be verified as accurate (confidence 2) [5FD64240], AccurateRip returned [D4B6CE14]
Track 10 cannot be verified as accurate (confidence 2) [DCF3ED37], AccurateRip returned [C9235FC8]
No tracks could be verified as accurate
You may have a different pressing from the one(s) in the database
End of status report
По всем вопросам пишите личное сообщение пользователю M0p94ok.
02:52
153
Нет комментариев. Ваш будет первым!