Вы используете незарегистрированную версию компонента "Вкладки"!

Поиск

(avant-garde jazz/experimental) Rich Woodson`s Ellipsis - Control and Resistance - 2000, FLAC (image+.cue), lossless

Треклист:
Rich Woodson`s Ellipsis - Control and Resistance
Жанр: avant-garde jazz/experimental
Год выпуска диска: 2000
Производитель диска: Cuneiform Records/USA
Аудио кодек: FLAC
Тип рипа: image+.cue
Битрейт аудио: lossless
Треклист:
1. The Gift of Pain
2. Abduction Fantasy
3. Only Gravity is Fair
4. The Pornographic Subset
5. The Gist Does Not Exist
6. D.P. in Mono
7. I Remember the Acid Bath
8. Vulgarity in Lieu of Nothing Else
9. Teargash
Доп. информация:
Peter Epstein - sax
Mat Fieldes - bass
John Hollenbeck - drums
Aaron Stewart - tenor sax
Richard Woodson - guitar
Собственный рип
Отчет ЕАС
 
скрытый текст
Exact Audio Copy V0.99 prebeta 5 from 4. May 2009
EAC extraction logfile from 11. July 2010, 21:29
Rich Woodson`s Ellipsis / Control and Resistance
Used drive : Optiarc DVD RW AD-7243S Adapter: 0 ID: 1
Read mode : Secure
Utilize accurate stream : Yes
Defeat audio cache : Yes
Make use of C2 pointers : No
Read offset correction : 48
Overread into Lead-In and Lead-Out : No
Fill up missing offset samples with silence : Yes
Delete leading and trailing silent blocks : No
Null samples used in CRC calculations : Yes
Used interface : Native Win32 interface for Win NT & 2000
Used output format : User Defined Encoder
Selected bitrate : 768 kBit/s
Quality : High
Add ID3 tag : No
Command line compressor : C:\Program Files\Exact Audio Copy\FLAC\FLAC.EXE
Additional command line options : -6 -V -T "ARTIST=%a" -T "TITLE=%t" -T "ALBUM=%g" -T "DATE=%y" -T "TRACKNUMBER=%n" -T "GENRE=%m" -T "COMMENT=%e" %s -o %d
TOC of the extracted CD
Track | Start | Length | Start sector | End sector
---------------------------------------------------------
1 | 0:00.00 | 3:42.65 | 0 | 16714
2 | 3:42.65 | 2:22.70 | 16715 | 27434
3 | 6:05.60 | 2:58.12 | 27435 | 40796
4 | 9:03.72 | 5:58.28 | 40797 | 67674
5 | 15:02.25 | 3:42.40 | 67675 | 84364
6 | 18:44.65 | 1:34.27 | 84365 | 91441
7 | 20:19.17 | 8:17.03 | 91442 | 128719
8 | 28:36.20 | 2:22.70 | 128720 | 139439
9 | 30:59.15 | 12:05.00 | 139440 | 193814
Range status and errors
Selected range
Filename C:\Documents and Settings\S\Мои документы\Torrent раздача\Rich Woodson`s Ellipsis - Control and Resistance.wav
Peak level 100.0 %
Range quality 100.0 %
Copy CRC 7A0BCC8D
Copy OK
No errors occurred
AccurateRip summary
Track 1 accurately ripped (confidence 1) [5432ADE5]
Track 2 accurately ripped (confidence 1) [84E18AC2]
Track 3 accurately ripped (confidence 1) [BE5C6ED7]
Track 4 accurately ripped (confidence 1) [1BECEE97]
Track 5 accurately ripped (confidence 1) [3B5EDCDF]
Track 6 accurately ripped (confidence 1) [C4FC92E7]
Track 7 accurately ripped (confidence 1) [9B7B2E70]
Track 8 accurately ripped (confidence 1) [323BDB5B]
Track 9 accurately ripped (confidence 1) [A3775054]
All tracks accurately ripped
End of status report
CUE
 
скрытый текст
REM GENRE Avantgarde
REM DATE 2000
REM DISCID 660A1809
REM COMMENT "ExactAudioCopy v0.99pb5"
PERFORMER "Rich Woodson`s Ellipsis"
TITLE "Control and Resistance"
FILE "Rich Woodson`s Ellipsis - Control and Resistance.flac" WAVE
TRACK 01 AUDIO
TITLE "TheGift of Pain"
PERFORMER "Rich Woodson`s Ellipsis"
INDEX 01 00:00:00
TRACK 02 AUDIO
TITLE "Abduction Fantasy"
PERFORMER "Rich Woodson`s Ellipsis"
INDEX 00 03:41:62
INDEX 01 03:42:65
TRACK 03 AUDIO
TITLE "Only Grafity is Fair"
PERFORMER "Rich Woodson`s Ellipsis"
INDEX 00 06:03:60
INDEX 01 06:05:60
TRACK 04 AUDIO
TITLE "The Pornographic Subset"
PERFORMER "Rich Woodson`s Ellipsis"
INDEX 00 09:01:70
INDEX 01 09:03:72
TRACK 05 AUDIO
TITLE "The Gist Does Not Exist"
PERFORMER "Rich Woodson`s Ellipsis"
INDEX 00 15:01:22
INDEX 01 15:02:25
TRACK 06 AUDIO
TITLE "D.P. in Mono"
PERFORMER "Rich Woodson`s Ellipsis"
INDEX 00 18:42:65
INDEX 01 18:44:65
TRACK 07 AUDIO
TITLE "Remember the Acid Bath"
PERFORMER "Rich Woodson`s Ellipsis"
INDEX 01 20:19:17
TRACK 08 AUDIO
TITLE "Vulgarity in of Nothing Eise"
PERFORMER "Rich Woodson`s Ellipsis"
INDEX 00 28:35:17
INDEX 01 28:36:20
TRACK 09 AUDIO
TITLE "Teargash"
PERFORMER "Rich Woodson`s Ellipsis"
INDEX 00 30:57:12
INDEX 01 30:59:15
Any questions -> support@pro-jazz.com. По всем вопросам пишите -> support@pro-jazz.com
01:10
166
Нет комментариев. Ваш будет первым!