Вы используете незарегистрированную версию компонента "Вкладки"!

Поиск

(avant-garde jazz/experimental Big Band) Circum Grand Orchestra - Le Ravissement - 2009, FLAC (tracks+.cue) lossless

Треклист:
Circum Grand Orchestra / Le Ravissement
Жанр: avant-garde jazz/experimental Big Band
Страна-производитель диска: France
Год издания диска: 2009
Издатель (лейбл): Circum-Disc
Номер по каталогу: CIDI902
Страна: France
Аудио кодек: FLAC (*.flac)
Тип рипа: tracks+.cue
Битрейт аудио: lossless
Продолжительность: 69;39
Источник (релизер): собственный рип
Наличие сканов в содержимом раздачи: да
Треклист:
1-3. Le Ravissement
4-6. Fatal Error
7-9. Provisoire
10. Insoluble
11-12. Locomotif
13. FPD
14. Reichstag.
 
Лог создания рипа
Exact Audio Copy V0.99 prebeta 5 from 4. May 2009
EAC extraction logfile from 3. March 2011, 19:11
Circum Grand Orchestra / Le Ravissement
Used drive : Optiarc DVD RW AD-7243S Adapter: 0 ID: 1
Read mode : Secure
Utilize accurate stream : Yes
Defeat audio cache : Yes
Make use of C2 pointers : No
Read offset correction : 48
Overread into Lead-In and Lead-Out : No
Fill up missing offset samples with silence : Yes
Delete leading and trailing silent blocks : No
Null samples used in CRC calculations : Yes
Used interface : Native Win32 interface for Win NT & 2000
Gap handling : Appended to previous track
Used output format : User Defined Encoder
Selected bitrate : 768 kBit/s
Quality : High
Add ID3 tag : No
Command line compressor : C:\Program Files\Exact Audio Copy\FLAC\FLAC.EXE
Additional command line options : -6 -V -T "ARTIST=%a" -T "TITLE=%t" -T "ALBUM=%g" -T "DATE=%y" -T "TRACKNUMBER=%n" -T "GENRE=%m" -T "COMMENT=%e" %s -o %d
TOC of the extracted CD
Track | Start | Length | Start sector | End sector
---------------------------------------------------------
1 | 0:00.00 | 2:47.06 | 0 | 12530
2 | 2:47.06 | 6:04.35 | 12531 | 39865
3 | 8:51.41 | 4:31.19 | 39866 | 60209
4 | 13:22.60 | 6:01.70 | 60210 | 87354
5 | 19:24.55 | 1:55.12 | 87355 | 95991
6 | 21:19.67 | 4:11.00 | 95992 | 114816
7 | 25:30.67 | 2:37.53 | 114817 | 126644
8 | 28:08.45 | 3:51.60 | 126645 | 144029
9 | 32:00.30 | 7:44.28 | 144030 | 178857
10 | 39:44.58 | 9:13.24 | 178858 | 220356
11 | 48:58.07 | 2:25.53 | 220357 | 231284
12 | 51:23.60 | 8:15.26 | 231285 | 268435
13 | 59:39.11 | 4:25.05 | 268436 | 288315
14 | 64:04.16 | 5:30.01 | 288316 | 313066
Track 1
Filename C:\Documents and Settings\S\Мои документы\Torrent раздача\01.Circum Grand Orchestra-Le ravissement Part I.wav
Pre-gap length 0:00:02.00
Peak level 98.4 %
Track quality 100.0 %
Test CRC 662FE00A
Copy CRC 662FE00A
Track not present in AccurateRip database
Copy OK
Track 2
Filename C:\Documents and Settings\S\Мои документы\Torrent раздача\02.Circum Grand Orchestra-Le ravissement Part II.wav
Peak level 98.4 %
Track quality 100.0 %
Test CRC C95CD871
Copy CRC C95CD871
Track not present in AccurateRip database
Copy OK
Track 3
Filename C:\Documents and Settings\S\Мои документы\Torrent раздача\03.Circum Grand Orchestra-Le ravissement Part III.wav
Peak level 98.4 %
Track quality 100.0 %
Test CRC EB8267EE
Copy CRC EB8267EE
Track not present in AccurateRip database
Copy OK
Track 4
Filename C:\Documents and Settings\S\Мои документы\Torrent раздача\04.Circum Grand Orchestra-Fatal Error Part I.wav
Pre-gap length 0:00:02.26
Peak level 98.4 %
Track quality 99.9 %
Test CRC B9F5B106
Copy CRC B9F5B106
Track not present in AccurateRip database
Copy OK
Track 5
Filename C:\Documents and Settings\S\Мои документы\Torrent раздача\05.Circum Grand Orchestra-Fatal Error Part II.wav
Peak level 98.4 %
Track quality 100.0 %
Test CRC 93F91D3F
Copy CRC 93F91D3F
Track not present in AccurateRip database
Copy OK
Track 6
Filename C:\Documents and Settings\S\Мои документы\Torrent раздача\06.Circum Grand Orchestra-Fatal Error Part III.wav
Peak level 98.4 %
Track quality 100.0 %
Test CRC 3EC56298
Copy CRC 3EC56298
Track not present in AccurateRip database
Copy OK
Track 7
Filename C:\Documents and Settings\S\Мои документы\Torrent раздача\07.Circum Grand Orchestra-Provisoire Part I.wav
Pre-gap length 0:00:05.16
Peak level 98.5 %
Track quality 99.9 %
Test CRC 1190F468
Copy CRC 1190F468
Track not present in AccurateRip database
Copy OK
Track 8
Filename C:\Documents and Settings\S\Мои документы\Torrent раздача\08.Circum Grand Orchestra-Provisoire Part II.wav
Peak level 98.4 %
Track quality 100.0 %
Test CRC 344CFDE2
Copy CRC 344CFDE2
Track not present in AccurateRip database
Copy OK
Track 9
Filename C:\Documents and Settings\S\Мои документы\Torrent раздача\09.Circum Grand Orchestra-Provisoire Part III.wav
Peak level 98.4 %
Track quality 100.0 %
Test CRC EB7787AC
Copy CRC EB7787AC
Track not present in AccurateRip database
Copy OK
Track 10
Filename C:\Documents and Settings\S\Мои документы\Torrent раздача\10.Circum Grand Orchestra-Insoluble.wav
Peak level 98.4 %
Track quality 100.0 %
Test CRC 6A94EF31
Copy CRC 6A94EF31
Track not present in AccurateRip database
Copy OK
Track 11
Filename C:\Documents and Settings\S\Мои документы\Torrent раздача\11.Circum Grand Orchestra-Loco-motif Part I.wav
Pre-gap length 0:00:03.72
Peak level 98.4 %
Track quality 100.0 %
Test CRC DEF4F6C7
Copy CRC DEF4F6C7
Track not present in AccurateRip database
Copy OK
Track 12
Filename C:\Documents and Settings\S\Мои документы\Torrent раздача\12.Circum Grand Orchestra-Loco-motif Part II.wav
Peak level 98.4 %
Track quality 100.0 %
Test CRC 526F32F9
Copy CRC 526F32F9
Track not present in AccurateRip database
Copy OK
Track 13
Filename C:\Documents and Settings\S\Мои документы\Torrent раздача\13.Circum Grand Orchestra-FPD ( Final Pathetique et doux ).wav
Peak level 98.4 %
Track quality 100.0 %
Test CRC 4329C5F8
Copy CRC 4329C5F8
Track not present in AccurateRip database
Copy OK
Track 14
Filename C:\Documents and Settings\S\Мои документы\Torrent раздача\14.Circum Grand Orchestra-Reichtag.wav
Pre-gap length 0:00:01.67
Peak level 98.4 %
Track quality 100.0 %
Test CRC 43C4E6A7
Copy CRC 43C4E6A7
Track not present in AccurateRip database
Copy OK
None of the tracks are present in the AccurateRip database
No errors occurred
End of status report
 
Содержание индексной карты (.CUE)
REM GENRE Avantgarde
REM DATE 2009
REM DISCID C4104E0E
REM COMMENT "ExactAudioCopy v0.99pb5"
PERFORMER "Circum Grand Orchestra"
TITLE "Le Ravissement"
FILE "01.Circum Grand Orchestra-Le ravissement Part I.wav" WAVE
TRACK 01 AUDIO
TITLE "Le ravissement Part I"
PERFORMER "Circum Grand Orchestra"
INDEX 01 00:00:00
FILE "02.Circum Grand Orchestra-Le ravissement Part II.wav" WAVE
TRACK 02 AUDIO
TITLE "Le ravissement Part II"
PERFORMER "Circum Grand Orchestra"
INDEX 01 00:00:00
FILE "03.Circum Grand Orchestra-Le ravissement Part III.wav" WAVE
TRACK 03 AUDIO
TITLE "Le ravissement Part III"
PERFORMER "Circum Grand Orchestra"
INDEX 01 00:00:00
TRACK 04 AUDIO
TITLE "Fatal Error Part I"
PERFORMER "Circum Grand Orchestra"
INDEX 00 04:28:68
FILE "04.Circum Grand Orchestra-Fatal Error Part I.wav" WAVE
INDEX 01 00:00:00
FILE "05.Circum Grand Orchestra-Fatal Error Part II.wav" WAVE
TRACK 05 AUDIO
TITLE "Fatal Error Part II"
PERFORMER "Circum Grand Orchestra"
INDEX 01 00:00:00
FILE "06.Circum Grand Orchestra-Fatal Error Part III.wav" WAVE
TRACK 06 AUDIO
TITLE "Fatal Error Part III"
PERFORMER "Circum Grand Orchestra"
INDEX 01 00:00:00
TRACK 07 AUDIO
TITLE "Provisoire Part I"
PERFORMER "Circum Grand Orchestra"
INDEX 00 04:05:59
FILE "07.Circum Grand Orchestra-Provisoire Part I.wav" WAVE
INDEX 01 00:00:00
FILE "08.Circum Grand Orchestra-Provisoire Part II.wav" WAVE
TRACK 08 AUDIO
TITLE "Provisoire Part II"
PERFORMER "Circum Grand Orchestra"
INDEX 01 00:00:00
FILE "09.Circum Grand Orchestra-Provisoire Part III.wav" WAVE
TRACK 09 AUDIO
TITLE "Provisoire Part III"
PERFORMER "Circum Grand Orchestra"
INDEX 01 00:00:00
FILE "10.Circum Grand Orchestra-Insoluble.wav" WAVE
TRACK 10 AUDIO
TITLE "Insoluble"
PERFORMER "Circum Grand Orchestra"
INDEX 01 00:00:00
TRACK 11 AUDIO
TITLE "Loco-motif Part I"
PERFORMER "Circum Grand Orchestra"
INDEX 00 09:09:27
FILE "11.Circum Grand Orchestra-Loco-motif Part I.wav" WAVE
INDEX 01 00:00:00
FILE "12.Circum Grand Orchestra-Loco-motif Part II.wav" WAVE
TRACK 12 AUDIO
TITLE "Loco-motif Part II"
PERFORMER "Circum Grand Orchestra"
INDEX 01 00:00:00
FILE "13.Circum Grand Orchestra-FPD ( Final Pathetique et doux ).wav" WAVE
TRACK 13 AUDIO
TITLE "FPD ( Final Pathetique et doux )"
PERFORMER "Circum Grand Orchestra"
INDEX 01 00:00:00
TRACK 14 AUDIO
TITLE "Reichtag"
PERFORMER "Circum Grand Orchestra"
INDEX 00 04:23:13
FILE "14.Circum Grand Orchestra-Reichtag.wav" WAVE
INDEX 01 00:00:00
 
Состав
J. Favreuille - sax
J-B Perez - sax
C. Rocher - clarinet
C. Motury - trumpet, flugelhorn
C. Pruvost - trumpet
S. Beaumont - guitars
0. Benoit - guitar
S. Orins - piano
C. Hche - bass
N. Mahleux - double bass
J-L Landsweerdt - drums
P. Orins - drums
Другие раздачи
http://rutracker.org/forum/search.php?uid=17163016
Any questions -> support@pro-jazz.com. По всем вопросам пишите -> support@pro-jazz.com
10:24
156
Нет комментариев. Ваш будет первым!