Вы используете незарегистрированную версию компонента "Вкладки"!

Поиск

(Avant-Garde Jazz, World, Prog Rock, Avant-Garde) [CD] John Zorn - Psychomagia - 2014, FLAC (tracks+.cue), lossless

(Avant-Garde Jazz, World, Prog Rock, Avant-Garde) [CD] John Zorn - Psychomagia - 2014, FLAC (tracks+.cue), lossless
Треклист:
John Zorn - Psychomagia
Жанр: Avant-Garde Jazz, World, Prog Rock, Avant-Garde
Носитель: CD
Страна-производитель диска (релиза): USA
Год издания: 2014
Издатель (лейбл): Tzadik
Номер по каталогу: # 8313
Страна исполнителя (группы): USA, New York City
Аудиокодек: FLAC (*.flac)
Тип рипа: tracks+.cue
Битрейт аудио: lossless
Продолжительность: 00:44:09
Источник (релизер): ruskaval
Наличие сканов в содержимом раздачи: да

Aram Bajakian: Guitar
Shanir Ezra Blumenkranz: Bass
Eyal Maoz: Guitar
Kenny Grohowski: Drums

01. Metapsychomagia [07:31]
02. Sacred Emblems [03:02]
03. Circe [06:02]
04. Squaring The Circle [05:51]
05. Celestrial Mechanism [02:32]
06. Evocation Of The Triumphent Beast [06:24]
07. Four Rivers [03:54]
08. The Nameless God [04:35]
09. Anima Mundi [04:14]

 
Лог создания рипа
X Lossless Decoder version 20141129 (148.1)
XLD extraction logfile from 2015-03-15 15:23:02 -0700
John Zorn / Psychomagia
Used drive : OPTIARC DVD RW AD-5680H (revision 3AHB)
Media type : Pressed CD
Ripper mode : XLD Secure Ripper
Disable audio cache : OK for the drive with a cache less than 1375KiB
Make use of C2 pointers : NO
Read offset correction : 48
Max retry count : 20
Gap status : Analyzed, Appended (except HTOA)
TOC of the extracted CD
Track | Start | Length | Start sector | End sector
---------------------------------------------------------
1 | 00:00:00 | 07:31:23 | 0 | 33847
2 | 07:31:23 | 03:02:50 | 33848 | 47547
3 | 10:33:73 | 06:02:03 | 47548 | 74700
4 | 16:36:01 | 05:51:04 | 74701 | 101029
5 | 22:27:05 | 02:32:67 | 101030 | 112496
6 | 24:59:72 | 06:24:25 | 112497 | 141321
7 | 31:24:22 | 03:54:04 | 141322 | 158875
8 | 35:18:26 | 04:35:10 | 158876 | 179510
9 | 39:53:36 | 04:14:18 | 179511 | 198578
AccurateRip Summary (DiscID: 000ffd68-007337d0-7d0a5709)
Track 01 : OK (v2, confidence 6/6)
Track 02 : OK (v2, confidence 6/6)
Track 03 : OK (v2, confidence 6/6)
Track 04 : OK (v2, confidence 6/6)
Track 05 : OK (v2, confidence 6/6)
Track 06 : OK (v2, confidence 6/6)
Track 07 : OK (v2, confidence 6/6)
Track 08 : OK (v2, confidence 6/6)
Track 09 : OK (v2, confidence 6/6)
->All tracks accurately ripped.
All Tracks
Album gain : -7.84 dB
Peak : 0.989319
Statistics
Read error : 0
Jitter error (maybe fixed) : 0
Retry sector count : 0
Damaged sector count : 0
Track 01
Filename : /Users/alderon54/Desktop/John Zorn - Psychomagia 2014 FLAC/John Zorn - Psychomagia (2014) [FLAC]/01 Metapsychomagia.flac
Pre-gap length : 00:02:00
Track gain : -8.46 dB
Peak : 0.982178
CRC32 hash (test run) : 5B9BC933
CRC32 hash : 5B9BC933
CRC32 hash (skip zero) : 1ABE45AD
AccurateRip v1 signature : 05A7904E
AccurateRip v2 signature : 747E05A6
->Accurately ripped (v2, confidence 6/6)
Statistics
Read error : 0
Jitter error (maybe fixed) : 0
Retry sector count : 0
Damaged sector count : 0
Track 02
Filename : /Users/alderon54/Desktop/John Zorn - Psychomagia 2014 FLAC/John Zorn - Psychomagia (2014) [FLAC]/02 Sacred Emblems.flac
Track gain : -4.59 dB
Peak : 0.972778
CRC32 hash (test run) : F0CB9478
CRC32 hash : F0CB9478
CRC32 hash (skip zero) : B1212A45
AccurateRip v1 signature : AFED0C24
AccurateRip v2 signature : 9503B4D1
->Accurately ripped (v2, confidence 6/6)
Statistics
Read error : 0
Jitter error (maybe fixed) : 0
Retry sector count : 0
Damaged sector count : 0
Track 03
Filename : /Users/alderon54/Desktop/John Zorn - Psychomagia 2014 FLAC/John Zorn - Psychomagia (2014) [FLAC]/03 Circe.flac
Track gain : -7.73 dB
Peak : 0.977509
CRC32 hash (test run) : 6982DDF8
CRC32 hash : 6982DDF8
CRC32 hash (skip zero) : 6769636E
AccurateRip v1 signature : 6287A343
AccurateRip v2 signature : 4FB9E855
->Accurately ripped (v2, confidence 6/6)
Statistics
Read error : 0
Jitter error (maybe fixed) : 0
Retry sector count : 0
Damaged sector count : 0
Track 04
Filename : /Users/alderon54/Desktop/John Zorn - Psychomagia 2014 FLAC/John Zorn - Psychomagia (2014) [FLAC]/04 Squaring The Circle.flac
Track gain : -7.02 dB
Peak : 0.976898
CRC32 hash (test run) : 7A03D65E
CRC32 hash : 7A03D65E
CRC32 hash (skip zero) : 12EA9F63
AccurateRip v1 signature : 35AC5ACD
AccurateRip v2 signature : 1DF517D3
->Accurately ripped (v2, confidence 6/6)
Statistics
Read error : 0
Jitter error (maybe fixed) : 0
Retry sector count : 0
Damaged sector count : 0
Track 05
Filename : /Users/alderon54/Desktop/John Zorn - Psychomagia 2014 FLAC/John Zorn - Psychomagia (2014) [FLAC]/05 Celestrial Mechanism.flac
Track gain : -7.57 dB
Peak : 0.981140
CRC32 hash (test run) : D0DDEC87
CRC32 hash : D0DDEC87
CRC32 hash (skip zero) : 101FDDCD
AccurateRip v1 signature : 1F76C210
AccurateRip v2 signature : 0C6DEE7E
->Accurately ripped (v2, confidence 6/6)
Statistics
Read error : 0
Jitter error (maybe fixed) : 0
Retry sector count : 0
Damaged sector count : 0
Track 06
Filename : /Users/alderon54/Desktop/John Zorn - Psychomagia 2014 FLAC/John Zorn - Psychomagia (2014) [FLAC]/06 Evocation Of The Triumphent Beast.flac
Track gain : -7.89 dB
Peak : 0.982910
CRC32 hash (test run) : F849611E
CRC32 hash : F849611E
CRC32 hash (skip zero) : 06713F96
AccurateRip v1 signature : 77EFBFB8
AccurateRip v2 signature : AD487ED7
->Accurately ripped (v2, confidence 6/6)
Statistics
Read error : 0
Jitter error (maybe fixed) : 0
Retry sector count : 0
Damaged sector count : 0
Track 07
Filename : /Users/alderon54/Desktop/John Zorn - Psychomagia 2014 FLAC/John Zorn - Psychomagia (2014) [FLAC]/07 Four Rivers.flac
Track gain : -7.43 dB
Peak : 0.982086
CRC32 hash (test run) : 034D845A
CRC32 hash : 034D845A
CRC32 hash (skip zero) : DC28D232
AccurateRip v1 signature : A662562A
AccurateRip v2 signature : 6E36A62F
->Accurately ripped (v2, confidence 6/6)
Statistics
Read error : 0
Jitter error (maybe fixed) : 0
Retry sector count : 0
Damaged sector count : 0
Track 08
Filename : /Users/alderon54/Desktop/John Zorn - Psychomagia 2014 FLAC/John Zorn - Psychomagia (2014) [FLAC]/08 The Nameless God.flac
Track gain : -7.07 dB
Peak : 0.978119
CRC32 hash (test run) : 27C31539
CRC32 hash : 27C31539
CRC32 hash (skip zero) : E3E99E29
AccurateRip v1 signature : B15EFF97
AccurateRip v2 signature : F05F5549
->Accurately ripped (v2, confidence 6/6)
Statistics
Read error : 0
Jitter error (maybe fixed) : 0
Retry sector count : 0
Damaged sector count : 0
Track 09
Filename : /Users/alderon54/Desktop/John Zorn - Psychomagia 2014 FLAC/John Zorn - Psychomagia (2014) [FLAC]/09 Anima Mundi.flac
Track gain : -6.56 dB
Peak : 0.989319
CRC32 hash (test run) : 5A309896
CRC32 hash : 5A309896
CRC32 hash (skip zero) : FA587A7E
AccurateRip v1 signature : 12E4641A
AccurateRip v2 signature : DE05044F
->Accurately ripped (v2, confidence 6/6)
Statistics
Read error : 0
Jitter error (maybe fixed) : 0
Retry sector count : 0
Damaged sector count : 0
No errors occurred
End of status report
-----BEGIN XLD SIGNATURE-----
.H2mPEdCJjTqTOnidflEL5EljeHYil7YrovPKAxsnRvWvwGQQaMJDF5pNJ69l7jDYyjTfrGWwYr_SqsvUO4dHm2EbM1QMJQJ1m9Dwlq
-----END XLD SIGNATURE-----
 
Содержание индексной карты (.CUE)
TITLE "Psychomagia"
PERFORMER "John Zorn"
REM GENRE "Jazz"
REM DATE "2014"
REM DISCNUMBER 1
REM TOTALDISCS 1
REM DISCID 7D0A5709
REM REPLAYGAIN_ALBUM_GAIN -7.84 dB
REM REPLAYGAIN_ALBUM_PEAK 0.989319
FILE "01 Metapsychomagia.flac" WAVE
TRACK 01 AUDIO
TITLE "Metapsychomagia"
PERFORMER "John Zorn"
FLAGS DCP
REM REPLAYGAIN_TRACK_GAIN -8.46 dB
REM REPLAYGAIN_TRACK_PEAK 0.982178
INDEX 01 00:00:00
FILE "02 Sacred Emblems.flac" WAVE
TRACK 02 AUDIO
TITLE "Sacred Emblems"
PERFORMER "John Zorn"
FLAGS DCP
REM REPLAYGAIN_TRACK_GAIN -4.59 dB
REM REPLAYGAIN_TRACK_PEAK 0.972778
INDEX 01 00:00:00
FILE "03 Circe.flac" WAVE
TRACK 03 AUDIO
TITLE "Circe"
PERFORMER "John Zorn"
FLAGS DCP
REM REPLAYGAIN_TRACK_GAIN -7.73 dB
REM REPLAYGAIN_TRACK_PEAK 0.977509
INDEX 01 00:00:00
FILE "04 Squaring The Circle.flac" WAVE
TRACK 04 AUDIO
TITLE "Squaring The Circle"
PERFORMER "John Zorn"
FLAGS DCP
REM REPLAYGAIN_TRACK_GAIN -7.02 dB
REM REPLAYGAIN_TRACK_PEAK 0.976898
INDEX 01 00:00:00
FILE "05 Celestrial Mechanism.flac" WAVE
TRACK 05 AUDIO
TITLE "Celestrial Mechanism"
PERFORMER "John Zorn"
FLAGS DCP
REM REPLAYGAIN_TRACK_GAIN -7.57 dB
REM REPLAYGAIN_TRACK_PEAK 0.981140
INDEX 01 00:00:00
FILE "06 Evocation Of The Triumphent Beast.flac" WAVE
TRACK 06 AUDIO
TITLE "Evocation Of The Triumphent Beast"
PERFORMER "John Zorn"
FLAGS DCP
REM REPLAYGAIN_TRACK_GAIN -7.89 dB
REM REPLAYGAIN_TRACK_PEAK 0.982910
INDEX 01 00:00:00
FILE "07 Four Rivers.flac" WAVE
TRACK 07 AUDIO
TITLE "Four Rivers"
PERFORMER "John Zorn"
FLAGS DCP
REM REPLAYGAIN_TRACK_GAIN -7.43 dB
REM REPLAYGAIN_TRACK_PEAK 0.982086
INDEX 01 00:00:00
FILE "08 The Nameless God.flac" WAVE
TRACK 08 AUDIO
TITLE "The Nameless God"
PERFORMER "John Zorn"
FLAGS DCP
REM REPLAYGAIN_TRACK_GAIN -7.07 dB
REM REPLAYGAIN_TRACK_PEAK 0.978119
INDEX 01 00:00:00
FILE "09 Anima Mundi.flac" WAVE
TRACK 09 AUDIO
TITLE "Anima Mundi"
PERFORMER "John Zorn"
FLAGS DCP
REM REPLAYGAIN_TRACK_GAIN -6.56 dB
REM REPLAYGAIN_TRACK_PEAK 0.989319
INDEX 01 00:00:00
По всем вопросам пишите личное сообщение пользователю M0p94ok.
10:36
308
Нет комментариев. Ваш будет первым!