Вы используете незарегистрированную версию компонента "Вкладки"!

Поиск

(Avant-Garde Jazz, World Jazz) [CD] Michael Zerang & The Blue Lights (Mars Williams, Dave Rempis, Joshua Berman, Kent Kessler) - Songs from the Big Book of Love - 2015, FLAC (tracks+.cue), lossless

(Avant-Garde Jazz, World Jazz) [CD] Michael Zerang & The Blue Lights (Mars Williams, Dave Rempis, Joshua Berman, Kent Kessler) - Songs from the Big Book of Love - 2015, FLAC (tracks+.cue), lossless
Треклист:
Michael Zerang & The Blue Lights / Songs from the Big Book of Love
Жанр: Avant-Garde Jazz, World Jazz
Носитель: CD
Страна-производитель диска (релиза): U.S.A.
Год издания: 2015
Издатель (лейбл): Pink Palace
Номер по каталогу: PPCD001
Аудиокодек: FLAC (*.flac)
Тип рипа: tracks+.cue
Битрейт аудио: lossless
Продолжительность: 51:25
Источник (релизер): я
Наличие сканов в содержимом раздачи: да
Треклист:
1. Dancing for Cigarettes 5:54
2. To Tu 5:26
3. Come to the Place of Love (for Sameè) 7:47
4. Bright Lights & Saucy Tights 5:31
5. The Third Pythia of Flin Flon (for Shirka) 7:02
6. Persian Lips 6:41
7. I Don’t Know If You Are Beautiful Tonight 6:14
8. Rub Down 6:51
All compositions by Michael Zerang.
Recorded live in concert at Hungry Brain, Chicago, August 10, 2014 except #3, recorded at Bar De Ville, Chicago, January 28, 2014.
Mars Williams – Alto Sax (2, 7), Tenor Sax (1, 3, 4, 5, 6, 8)
Dave Rempis – Alto Sax (1, 3, 4, 6, 8), Tenor Sax (1, 2), Baritone Sax (5, 7)
Joshua Berman – Cornet
Kent Kessler – Contrabass
Michael Zerang – Drums
Cover art by Afzal al-Hosseini, "Persian", circa 1648.
 
Лог создания рипа
Exact Audio Copy V1.0 beta 6 from 9. April 2015
EAC extraction logfile from 21. April 2015, 13:56
Michael Zerang & The Blue Lights / Songs from the Big Book of Love
Used drive : SlimtypeeNAU508 5 Adapter: 1 ID: 1
Read mode : Secure
Utilize accurate stream : Yes
Defeat audio cache : Yes
Make use of C2 pointers : No
Read offset correction : 6
Overread into Lead-In and Lead-Out : No
Fill up missing offset samples with silence : Yes
Delete leading and trailing silent blocks : No
Null samples used in CRC calculations : Yes
Used interface : Native Win32 interface for Win NT & 2000
Gap handling : Appended to previous track
Used output format : User Defined Encoder
Selected bitrate : 768 kBit/s
Quality : High
Add ID3 tag : No
Command line compressor : C:\Program Files (x86)\Exact Audio Copy\Flac\flac.exe
Additional command line options : -8 -V -T "ARTIST=%artist%" -T "TITLE=%title%" -T "ALBUM=%albumtitle%" -T "DATE=%year%" -T "TRACKNUMBER=%tracknr%" -T "TOTALTRACKS=%numtracks%" -T "GENRE=%genre%" -T "ALBUMARTIST=%albumartist%" -T "ALBUM ARTIST=%albumartist%" -T "COMMENT=EAC Secure Mode, Test & Copy, AccurateRip, FLAC -8" %source%
TOC of the extracted CD
Track | Start | Length | Start sector | End sector
---------------------------------------------------------
1 | 0:00.00 | 5:53.38 | 0 | 26512
2 | 5:53.38 | 5:26.34 | 26513 | 50996
3 | 11:19.72 | 7:46.23 | 50997 | 85969
4 | 19:06.20 | 5:31.00 | 85970 | 110794
5 | 24:37.20 | 7:02.10 | 110795 | 142454
6 | 31:39.30 | 6:41.30 | 142455 | 172559
7 | 38:20.60 | 6:13.57 | 172560 | 200591
8 | 44:34.42 | 6:50.48 | 200592 | 231389
Track 1
Filename C:\EAC rips\01 - Dancing for Cigarettes.wav
Pre-gap length 0:00:02.00
Peak level 99.8 %
Extraction speed 2.4 X
Track quality 100.0 %
Test CRC B4572BCB
Copy CRC B4572BCB
Track not present in AccurateRip database
Copy OK
Track 2
Filename C:\EAC rips\02 - To Tu.wav
Pre-gap length 0:00:03.00
Peak level 99.8 %
Extraction speed 2.7 X
Track quality 100.0 %
Test CRC 73079440
Copy CRC 73079440
Track not present in AccurateRip database
Copy OK
Track 3
Filename C:\EAC rips\03 - Come to the Place of Love (for Sameè).wav
Pre-gap length 0:00:03.00
Peak level 99.8 %
Extraction speed 3.0 X
Track quality 100.0 %
Test CRC 33CEE258
Copy CRC 33CEE258
Track not present in AccurateRip database
Copy OK
Track 4
Filename C:\EAC rips\04 - Bright Lights + Saucy Tights.wav
Pre-gap length 0:00:03.00
Peak level 99.8 %
Extraction speed 2.8 X
Track quality 99.9 %
Test CRC 76D5DF50
Copy CRC 76D5DF50
Track not present in AccurateRip database
Copy OK
Track 5
Filename C:\EAC rips\05 - The Third Pythia of Flin Flon (for Shirka).wav
Pre-gap length 0:00:03.00
Peak level 99.8 %
Extraction speed 3.6 X
Track quality 100.0 %
Test CRC 8A9A8408
Copy CRC 8A9A8408
Track not present in AccurateRip database
Copy OK
Track 6
Filename C:\EAC rips\06 - Persian Lips.wav
Pre-gap length 0:00:03.00
Peak level 99.8 %
Extraction speed 3.4 X
Track quality 99.9 %
Test CRC 2C47EE95
Copy CRC 2C47EE95
Track not present in AccurateRip database
Copy OK
Track 7
Filename C:\EAC rips\07 - I Don't Know If You Are Beautiful Tonight.wav
Pre-gap length 0:00:03.00
Peak level 99.7 %
Extraction speed 3.6 X
Track quality 100.0 %
Test CRC B62D127C
Copy CRC B62D127C
Track not present in AccurateRip database
Copy OK
Track 8
Filename C:\EAC rips\08 - Chicago Rub Down.wav
Pre-gap length 0:00:03.00
Peak level 99.8 %
Extraction speed 4.0 X
Track quality 100.0 %
Test CRC 413C3467
Copy CRC 413C3467
Track not present in AccurateRip database
Copy OK
None of the tracks are present in the AccurateRip database
No errors occurred
End of status report
---- CUETools DB Plugin V2.1.6
[CTDB TOCID: 54Ku8fKjDg4g0c.9wLgaRF0T2oE-] disk not present in database
Submit result: 54Ku8fKjDg4g0c.9wLgaRF0T2oE- has been uploaded
==== Log checksum A555DB23EF32424B97254D775340CEF89EA0092C4342AD701F30A4E3E91ECDB4 ====
 
Содержание индексной карты (.CUE)
REM GENRE "Pink Palace PPCD001"
REM DATE 2015
REM DISCID 680C0D08
REM COMMENT "ExactAudioCopy v1.0b6"
PERFORMER "Michael Zerang & The Blue Lights"
TITLE "Songs from the Big Book of Love"
FILE "01 - Dancing for Cigarettes.wav" WAVE
TRACK 01 AUDIO
TITLE "Dancing for Cigarettes"
PERFORMER "Michael Zerang & The Blue Lights"
ISRC QMAAK1523927
INDEX 01 00:00:00
TRACK 02 AUDIO
TITLE "To Tu"
PERFORMER "Michael Zerang & The Blue Lights"
ISRC QMAAK1523928
INDEX 00 05:50:38
FILE "02 - To Tu.wav" WAVE
INDEX 01 00:00:00
TRACK 03 AUDIO
TITLE "Come to the Place of Love (for Sameè)"
PERFORMER "Michael Zerang & The Blue Lights"
ISRC QMAAK1523929
INDEX 00 05:23:34
FILE "03 - Come to the Place of Love (for Sameè).wav" WAVE
INDEX 01 00:00:00
TRACK 04 AUDIO
TITLE "Bright Lights + Saucy Tights"
PERFORMER "Michael Zerang & The Blue Lights"
ISRC QMAAK1523930
INDEX 00 07:43:23
FILE "04 - Bright Lights + Saucy Tights.wav" WAVE
INDEX 01 00:00:00
TRACK 05 AUDIO
TITLE "The Third Pythia of Flin Flon (for Shirka)"
PERFORMER "Michael Zerang & The Blue Lights"
ISRC QMAAK1523931
INDEX 00 05:28:00
FILE "05 - The Third Pythia of Flin Flon (for Shirka).wav" WAVE
INDEX 01 00:00:00
TRACK 06 AUDIO
TITLE "Persian Lips"
PERFORMER "Michael Zerang & The Blue Lights"
ISRC QMAAK1523932
INDEX 00 06:59:10
FILE "06 - Persian Lips.wav" WAVE
INDEX 01 00:00:00
TRACK 07 AUDIO
TITLE "I Don't Know If You Are Beautiful Tonight"
PERFORMER "Michael Zerang & The Blue Lights"
ISRC QMAAK1523933
INDEX 00 06:38:30
FILE "07 - I Don't Know If You Are Beautiful Tonight.wav" WAVE
INDEX 01 00:00:00
TRACK 08 AUDIO
TITLE "Chicago Rub Down"
PERFORMER "Michael Zerang & The Blue Lights"
ISRC QMAAK1523934
INDEX 00 06:10:57
FILE "08 - Chicago Rub Down.wav" WAVE
INDEX 01 00:00:00
По всем вопросам пишите личное сообщение пользователю M0p94ok.
14:07
184
Нет комментариев. Ваш будет первым!