Вы используете незарегистрированную версию компонента "Вкладки"!

Поиск

(Avant-Garde Jazz, World Fusion) David Murray – Creole - 1998, FLAC (tracks+.cue), lossless

Треклист:
David Murray – Creole
Жанр: Avant-Garde Jazz, World Fusion
Год выпуска диска: 1998
Издатель (лейбл): Justin Time
Номер по каталогу: 115-2
Производитель диска: Canada
Страна: USA, Guadeloupe
Аудио кодек: FLAC (*.flac)
Тип рипа: tracks+.cue
Битрейт аудио: lossless
Продолжительность: 64:29
Источник (релизер): Собственный рип
Наличие сканов в содержимом раздачи: да
Трэклист:
1 Gété (Kiavue) 6:00
2 Flor Na Paul (Chantre) 8:40
3 Guadeloupe Sunrise (Murray) 5:50
4 Soma Tour (Cilla) 7:26
5 Savon de Toilette (Landreseau) 4:53
6 Gansavn'n (Kiavue) 9:15
7 Mona (Murray) 9:59
8 Guadeloupe After Dark (Lockel) 4:59
9 Tonte Vontarde (Chantre) 7:27
 
Лог создания рипа
Exact Audio Copy V0.99 prebeta 5 from 4. May 2009
EAC extraction logfile from 21. February 2011, 8:11
David Murray / Creole
Used drive : Optiarc DVD RW AD-7200S Adapter: 2 ID: 1
Read mode : Secure
Utilize accurate stream : Yes
Defeat audio cache : Yes
Make use of C2 pointers : No
Read offset correction : 48
Overread into Lead-In and Lead-Out : No
Fill up missing offset samples with silence : Yes
Delete leading and trailing silent blocks : No
Null samples used in CRC calculations : Yes
Used interface : Native Win32 interface for Win NT & 2000
Gap handling : Appended to previous track
Used output format : User Defined Encoder
Selected bitrate : 128 kBit/s
Quality : High
Add ID3 tag : No
Command line compressor : C:\Program Files\Exact Audio Copy\FLAC\FLAC.EXE
Additional command line options : -8 -V -T "ARTIST=%a" -T "TITLE=%t" -T "ALBUM=%g" -T "DATE=%y" -T "TRACKNUMBER=%n" -T "GENRE=%m" -T "COMMENT=EAC FLAC -8" %s
TOC of the extracted CD
Track | Start | Length | Start sector | End sector
---------------------------------------------------------
1 | 0:00.00 | 6:02.67 | 0 | 27216
2 | 6:02.67 | 8:43.73 | 27217 | 66514
3 | 14:46.65 | 5:53.07 | 66515 | 92996
4 | 20:39.72 | 7:29.50 | 92997 | 126721
5 | 28:09.47 | 4:55.40 | 126722 | 148886
6 | 33:05.12 | 9:19.15 | 148887 | 190826
7 | 42:24.27 | 10:00.55 | 190827 | 235881
8 | 52:25.07 | 5:32.03 | 235882 | 260784
9 | 57:57.10 | 7:28.00 | 260785 | 294384
Track 1
Filename E:\David Murray - Creole (1998)\01. David Murray – Gete.wav
Pre-gap length 0:00:02.00
Peak level 99.9 %
Track quality 99.9 %
Test CRC 6D48DBC1
Copy CRC 6D48DBC1
Accurately ripped (confidence 5) [0C8556A7]
Copy OK
Track 2
Filename E:\David Murray - Creole (1998)\02. David Murray – Flor Na Paul.wav
Pre-gap length 0:00:01.25
Peak level 98.5 %
Track quality 99.9 %
Test CRC 0A69E3CA
Copy CRC 0A69E3CA
Accurately ripped (confidence 5) [6A20030A]
Copy OK
Track 3
Filename E:\David Murray - Creole (1998)\03. David Murray – Guadeloupe Sunrise.wav
Pre-gap length 0:00:02.00
Peak level 96.9 %
Track quality 100.0 %
Test CRC 5C779C80
Copy CRC 5C779C80
Accurately ripped (confidence 5) [F5282D9A]
Copy OK
Track 4
Filename E:\David Murray - Creole (1998)\04. David Murray – Soma Tour.wav
Pre-gap length 0:00:01.30
Peak level 100.0 %
Track quality 100.0 %
Test CRC F168B4E3
Copy CRC F168B4E3
Accurately ripped (confidence 5) [0083A9D7]
Copy OK
Track 5
Filename E:\David Murray - Creole (1998)\05. David Murray – Savon de Toilette.wav
Pre-gap length 0:00:01.42
Peak level 96.5 %
Track quality 99.9 %
Test CRC D144AF83
Copy CRC D144AF83
Accurately ripped (confidence 5) [0782D523]
Copy OK
Track 6
Filename E:\David Murray - Creole (1998)\06. David Murray – Gansavn'n.wav
Pre-gap length 0:00:01.32
Peak level 100.0 %
Track quality 99.9 %
Test CRC 09EFD396
Copy CRC 09EFD396
Accurately ripped (confidence 5) [58231C5A]
Copy OK
Track 7
Filename E:\David Murray - Creole (1998)\07. David Murray – Mona.wav
Pre-gap length 0:00:02.17
Peak level 100.0 %
Track quality 100.0 %
Test CRC FDCF70DE
Copy CRC FDCF70DE
Accurately ripped (confidence 5) [75570050]
Copy OK
Track 8
Filename E:\David Murray - Creole (1998)\08. David Murray – Guadeloupe After Dark.wav
Pre-gap length 0:00:00.40
Peak level 91.3 %
Track quality 99.9 %
Test CRC 57B83F4C
Copy CRC 57B83F4C
Accurately ripped (confidence 5) [855E44AC]
Copy OK
Track 9
Filename E:\David Murray - Creole (1998)\09. David Murray – Tonte Vontarde.wav
Pre-gap length 0:00:01.43
Peak level 98.1 %
Track quality 100.0 %
Test CRC 0886C1F1
Copy CRC 0886C1F1
Accurately ripped (confidence 5) [6EA775EF]
Copy OK
All tracks accurately ripped
No errors occurred
End of status report
 
Содержание индексной карты (.CUE)
REM GENRE Jazz
REM DATE 1998
REM DISCID 900F5509
REM COMMENT "ExactAudioCopy v0.99pb5"
PERFORMER "David Murray"
TITLE "Creole "
FILE "01. David Murray – Gete.wav" WAVE
TRACK 01 AUDIO
TITLE "Gete"
PERFORMER "David Murray"
INDEX 01 00:00:00
TRACK 02 AUDIO
TITLE "Flor Na Paul"
PERFORMER "David Murray"
INDEX 00 06:01:42
FILE "02. David Murray – Flor Na Paul.wav" WAVE
INDEX 01 00:00:00
TRACK 03 AUDIO
TITLE "Guadeloupe Sunrise"
PERFORMER "David Murray"
INDEX 00 08:41:73
FILE "03. David Murray – Guadeloupe Sunrise.wav" WAVE
INDEX 01 00:00:00
TRACK 04 AUDIO
TITLE "Soma Tour"
PERFORMER "David Murray"
INDEX 00 05:51:52
FILE "04. David Murray – Soma Tour.wav" WAVE
INDEX 01 00:00:00
TRACK 05 AUDIO
TITLE "Savon de Toilette"
PERFORMER "David Murray"
INDEX 00 07:28:08
FILE "05. David Murray – Savon de Toilette.wav" WAVE
INDEX 01 00:00:00
TRACK 06 AUDIO
TITLE "Gansavn'n"
PERFORMER "David Murray"
INDEX 00 04:54:08
FILE "06. David Murray – Gansavn'n.wav" WAVE
INDEX 01 00:00:00
TRACK 07 AUDIO
TITLE "Mona"
PERFORMER "David Murray"
INDEX 00 09:16:73
FILE "07. David Murray – Mona.wav" WAVE
INDEX 01 00:00:00
TRACK 08 AUDIO
TITLE "Guadeloupe After Dark"
PERFORMER "David Murray"
INDEX 00 10:00:15
FILE "08. David Murray – Guadeloupe After Dark.wav" WAVE
INDEX 01 00:00:00
TRACK 09 AUDIO
TITLE "Tonte Vontarde"
PERFORMER "David Murray"
INDEX 00 05:30:35
FILE "09. David Murray – Tonte Vontarde.wav" WAVE
INDEX 01 00:00:00
 
Об альбоме (сборнике)
Creole, Murray's latest and his second for the Canadian Justin Time label, is a pure joy. It's a high mark in a career sparkling with exceptions and boundary pushing. Recorded in Guadeloupe in early 1998, Creole is a fiery, imaginative musical coalition of Murray's long-time American compatriots, James Newton (flute), D.D. Jackson (piano); Ray Drummond (bass) and Billy Hart (drums) and a group of Caribbean percussionists, vocalists and the outstanding guitar of Gérard Lockel. The near-perfect blend is accomplished with an emphasis on rhythm, something Murray has explored on a part-time basis since at least 1989's Golden Sea (Sound Aspects), with Kahil El'Zabar…
Creole is full of surprises - and offers much that's inviting, exciting and worth hearing again… Creole is one of Murray's most accessible recordings to date, one of the easiest to find and one that is superlative among his many 1990 recordings. Highly recommended. Douglas Payne AAJ
 
Состав
David Murray Clarinet (Bass), Sax (Tenor), Producer
Ray Drummond Bass Violin
Billy Jabali Hart Drums
Klod Kiavue Percussion, Ka Drum, Voice
James Newton Flute
Max Cilla Flute Des Mornes
D.D. Jackson Piano
Gerard Lockel Guitar
François Landreseau Ka Drum and Voice on Savon de Toilette
Michel Cilla Flute Dibass Drum, Voice
Any questions -> support@pro-jazz.com. По всем вопросам пишите -> support@pro-jazz.com
14:33
170
Нет комментариев. Ваш будет первым!