Вы используете незарегистрированную версию компонента "Вкладки"!

Поиск

(Avant-Garde Jazz) Wayne Horvitz and Pigpen - Miss Ann - 1993, FLAC (image+.cue), lossless

Треклист:
Wayne Horvitz and Pigpen - Miss Ann
Жанр: Avant-Garde Jazz
Год выпуска диска: 1993
Производитель диска: Canada
Аудио кодек: FLAC
Тип рипа: image+.cue
Битрейт аудио: lossless
Трэклист:
1. Miss Ann (4:45)
2. The Very Beginning (4:20)
3. Hard Regulator (3:03)
4. Stupid (5:41)
5. Ballad (4:18)
6. Grind (4:29)
7. Triggerfingers (3:42)
8. One Last Blues (6:57)
9. Caligari (4:30)
all compositions by Wayne Horvitz except Miss Ann by Eric Dolphy and Triggerfingers by John Zorn
Доп. информация:
Wayne Horvitz * Briggan Krauss * Fred Chalenor * Mike Stone
Backup Horns on Caligari and Stupid performed by The Billy Tipton Memorial Saxophone Quartet.
Рип диска из собственной коллекции. Сканы бумажек вложены в раздачу.
 
EAC
Exact Audio Copy V0.99 prebeta 5 from 4. May 2009
Отчёт EAC об извлечении, выполненном 20. февраля 2010, 20:37
Pigpen / Miss Ann
Дисковод: PIONEER DVD-RW DVR-112D Adapter: 1 ID: 0
Режим чтения : Достоверность
Использование точного потока : Да
Отключение кэша аудио : Да
Использование указателей C2 : Нет
Коррекция смещения при чтении : 48
Способность читать области Lead-in и Lead-out : Нет
Заполнение пропущенных сэмплов тишиной : Да
Удаление блоков с тишиной в начале и конце : Нет
При вычислениях CRC использовались нулевые сэмплы : Да
Интерфейс : Установленный внешний ASPI-интерфейс
Выходной формат : Пользовательский кодировщик
Выбранный битрейт : 128 kBit/s
Качество : Высокий
Добавление ID3-тэга : Нет
Утилита сжатия : C:\Program Files\Exact Audio Copy\Flac\flac.exe
Дополнительные параметры : -8 -V -T "ARTIST=%a" -T "TITLE=%t" -T "ALBUM=%g" -T "DATE=%y" -T "TRACKNUMBER=%n" -T "GENRE=%m" -T "COMMENT=EAC FLAC -8" %s
TOC извлечённого CD
Трек | Старт | Длительность | Начальный сектор | Конечный сектор
---------------------------------------------------------------------
1 | 0:00.30 | 4:45.05 | 30 | 21409
2 | 4:45.35 | 4:20.21 | 21410 | 40930
3 | 9:05.56 | 3:03.30 | 40931 | 54685
4 | 12:09.11 | 5:41.06 | 54686 | 80266
5 | 17:50.17 | 4:18.36 | 80267 | 99652
6 | 22:08.53 | 4:29.52 | 99653 | 119879
7 | 26:38.30 | 3:42.62 | 119880 | 136591
8 | 30:21.17 | 6:57.19 | 136592 | 167885
9 | 37:18.36 | 4:30.62 | 167886 | 188197
Характеристики диапазона извлечения и сообщения об ошибках
Выбранный диапазон
Имя файла C:\Miss Ann\Pigpen - Miss Ann.wav
Пиковый уровень 100.0 %
Качество диапазона 100.0 %
CRC копии 9FEBE314
Копирование... OK
Ошибок не произошло
AccurateRip: сводка
Трек 1 точное извлечение (доверие 3) [103B57A5]
Трек 2 точное извлечение (доверие 3) [00F9FFC5]
Трек 3 точное извлечение (доверие 3) [B56B2656]
Трек 4 точное извлечение (доверие 3) [B05E17F0]
Трек 5 точное извлечение (доверие 3) [6F16D748]
Трек 6 точное извлечение (доверие 3) [4CAF43A1]
Трек 7 точное извлечение (доверие 3) [E462365B]
Трек 8 точное извлечение (доверие 3) [7001D61E]
Трек 9 точное извлечение (доверие 3) [5A48BCB4]
Все треки извлечены точно
Конец отчёта
Any questions -> support@pro-jazz.com. По всем вопросам пишите -> support@pro-jazz.com
19:08
178
Нет комментариев. Ваш будет первым!