Вы используете незарегистрированную версию компонента "Вкладки"!

Поиск

(Avant-Garde Jazz) VA - WIM Radio Days - 1999, FLAC (tracks+.cue), lossless

(Avant-Garde Jazz) VA - WIM Radio Days - 1999, FLAC (tracks+.cue), lossless
Треклист:
WIM Radio Days
Жанр: Avant-Garde Jazz
Страна-производитель диска: Switzerland
Год издания: 1999
Издатель (лейбл): Association Suisse des Musiciens
Номер по каталогу: stv/asm 001
Аудиокодек: FLAC (*.flac)
Тип рипа: tracks+.cue
Битрейт аудио: lossless
Продолжительность: 70:40
Источник (релизер): CD
Наличие сканов в содержимом раздачи: да
Треклист:
01. Werner Lüdi solo (03:02) Werner Lüdi - alto saxophone
02. Nyanda (02:22) Andreas Stahel - flute, Bernhard Göttert - cello
03. Voerkel / Lovens (04:34) Urs Voerkel - piano, Paul Lovens - drums
04. Bühler / Kramis / Wolfarth (04:55) Hermann Bühler - alto saxophone, Herbert Kramis - bass, Christian Wolfarth - drums
05. Co Streiff Sextett (05:05) Co Streiff - alto saxophone, Tommy Meier - tenor saxophone, Christoph Gantert - trumpet, Ben Jeger - organ, accordion, Christian Hartmann - bass, Fredi Fluckiger - drums
06. Markus Eichenberger solo (02:58) Markus Eichenberger - clarinet, bass clarinet
07. Afro Garage (03:47) Christoph Baumann - piano, Jacques Siron - bass, Dieter Ulrich - drums
08. Müller / Seigner (04:25) Michel Seigner - guitar, electronics, Günter Müller - percussion, electronics
09. 4 Venti Quattro (03:49) Ursula Maehr - recorder, Susann Wehrli - flute, Mathias Arter - oboe, Valentin Vecellio - bass clarinet
10. Billiger Bauer (04:03) Kurt Grämiger - alto saxophone, Omri Ziegele - alto saxophone, Peter Landis - soprano and tenor saxophones, Placidus Schelbert - cello, Gabriela Friedli - piano, Herbert Kramis - bass, Jan Schlegel - bass, Dieter Ulrich - drums, Marco Kappeli - drums
11. Hans Koch solo (02:03) Hans Koch - bass clarinet
12. Cieletterra (02:38) Fredi Lüscher - piano, Cristine Wildbolz - bass, Margrit Rieben - drums
13. Duo Frappant (02:44) Gabriela Friedli - piano, Priska Walss - alphorn
14. Die Firma mit Peter Weber (04:33) Christian Strässle - viola, Mathes Seidl - viola, Martin Birnstiel - cello, Marino Pliakas - bass, Peter Weber - liest
15. Jürgen Krusche solo (02:28) Jürgen Krusche - acoustic guitar
16. Polyphonie Zürich (03:02) Stephan Wittwer - guitar, Ernst Thoma - electronics
17. Geissberger / Kaehr / Rüdisühli / Wanderler-Deck (01:51) Helen Geissberger - viola, Agathe Kaehr - flute, Beni Rüdisüli - viola, Elisabeth Wandeler-Deck - piano
18. Peter K Frey solo (03:23) Peter K Frey - bass
19. Dick / Zimmerlin / Bohnes / Müller (05:23) Robert Dick - flute, Alfred Zimmerlin - cello, Jochen Bohnes - electronics, Günter Müller - percussion, electronics
20. Schweizer / Favre (03:44) Irène Schweizer - piano, Pierre Favre - drums
 
Лог создания рипа
Exact Audio Copy V1.0 beta 2 from 29. April 2011
EAC extraction logfile from 3. May 2012, 16:23
Various Artists / Radiodays
Used drive : Optiarc DVD RW AD-7240S Adapter: 2 ID: 0
Read mode : Secure
Utilize accurate stream : Yes
Defeat audio cache : Yes
Make use of C2 pointers : No
Read offset correction : 48
Overread into Lead-In and Lead-Out : No
Fill up missing offset samples with silence : Yes
Delete leading and trailing silent blocks : No
Null samples used in CRC calculations : Yes
Used interface : Installed external ASPI interface
Gap handling : Appended to previous track
Used output format : User Defined Encoder
Selected bitrate : 128 kBit/s
Quality : High
Add ID3 tag : No
Command line compressor : C:\Program Files\Exact Audio Copy\FLAC\FLAC.EXE
Additional command line options : -8 -V -T "ARTIST=%artist%" -T "TITLE=%title%" -T "ALBUM=%albumtitle%" -T "DATE=%year%" -T "TRACKNUMBER=%tracknr%" -T "GENRE=%genre%" -T "COMMENT=%comment%" -T "BAND=%albuminterpret%" -T "COMPOSER=%composer%" %haslyrics%--ta
TOC of the extracted CD
Track | Start | Length | Start sector | End sector
---------------------------------------------------------
1 | 0:00.00 | 3:04.05 | 0 | 13804
2 | 3:04.05 | 2:22.25 | 13805 | 24479
3 | 5:26.30 | 4:32.45 | 24480 | 44924
4 | 9:59.00 | 4:55.52 | 44925 | 67101
5 | 14:54.52 | 5:06.65 | 67102 | 90116
6 | 20:01.42 | 2:56.10 | 90117 | 103326
7 | 22:57.52 | 3:48.25 | 103327 | 120451
8 | 26:46.02 | 4:24.73 | 120452 | 140324
9 | 31:11.00 | 3:47.57 | 140325 | 157406
10 | 34:58.57 | 4:06.13 | 157407 | 175869
11 | 39:04.70 | 2:02.47 | 175870 | 185066
12 | 41:07.42 | 2:37.58 | 185067 | 196899
13 | 43:45.25 | 2:44.57 | 196900 | 209256
14 | 46:30.07 | 4:34.33 | 209257 | 229839
15 | 51:04.40 | 2:26.62 | 229840 | 240851
16 | 53:31.27 | 3:01.45 | 240852 | 254471
17 | 56:32.72 | 1:53.48 | 254472 | 262994
18 | 58:26.45 | 3:21.20 | 262995 | 278089
19 | 61:47.65 | 5:04.57 | 278090 | 300946
20 | 66:52.47 | 3:45.58 | 300947 | 317879
Track 1
Filename C:\VA (1999) - Radiodays\01 Werner Lüdi solo.wav
Pre-gap length 0:00:02.00
Peak level 92.1 %
Extraction speed 2.2 X
Track quality 100.0 %
Test CRC F092C957
Copy CRC F092C957
Track not present in AccurateRip database
Copy OK
Track 2
Filename C:\VA (1999) - Radiodays\02 Nyanda.wav
Pre-gap length 0:00:02.48
Peak level 98.7 %
Extraction speed 2.3 X
Track quality 100.0 %
Test CRC 89B6C4B5
Copy CRC 89B6C4B5
Track not present in AccurateRip database
Copy OK
Track 3
Filename C:\VA (1999) - Radiodays\03 Voerkel , Lovens.wav
Pre-gap length 0:00:02.28
Peak level 99.0 %
Extraction speed 2.5 X
Track quality 99.9 %
Test CRC 790609A8
Copy CRC 790609A8
Track not present in AccurateRip database
Copy OK
Track 4
Filename C:\VA (1999) - Radiodays\04 Bühler , Kramis , Wolfarth.wav
Pre-gap length 0:00:00.73
Peak level 99.0 %
Extraction speed 3.0 X
Track quality 100.0 %
Test CRC 2D6476B6
Copy CRC 2D6476B6
Track not present in AccurateRip database
Copy OK
Track 5
Filename C:\VA (1999) - Radiodays\05 Co Streiff Sextett.wav
Pre-gap length 0:00:01.12
Peak level 98.9 %
Extraction speed 3.3 X
Track quality 100.0 %
Test CRC 45F8FEB5
Copy CRC 45F8FEB5
Track not present in AccurateRip database
Copy OK
Track 6
Filename C:\VA (1999) - Radiodays\06 Markus Eichenberger solo.wav
Pre-gap length 0:00:02.17
Peak level 98.9 %
Extraction speed 3.2 X
Track quality 100.0 %
Test CRC 76D75D1F
Copy CRC 76D75D1F
Track not present in AccurateRip database
Copy OK
Track 7
Filename C:\VA (1999) - Radiodays\07 Afro Garage.wav
Pre-gap length 0:00:00.17
Peak level 97.9 %
Extraction speed 3.5 X
Track quality 100.0 %
Test CRC 4616CE8D
Copy CRC 4616CE8D
Track not present in AccurateRip database
Copy OK
Track 8
Filename C:\VA (1999) - Radiodays\08 Müller , Seigner.wav
Pre-gap length 0:00:01.37
Peak level 63.8 %
Extraction speed 3.4 X
Track quality 100.0 %
Test CRC 75DE1177
Copy CRC 75DE1177
Track not present in AccurateRip database
Copy OK
Track 9
Filename C:\VA (1999) - Radiodays\09 4 Venti Quattro.wav
Pre-gap length 0:00:01.25
Peak level 64.2 %
Extraction speed 3.4 X
Track quality 99.9 %
Test CRC 0C06A01A
Copy CRC 0C06A01A
Track not present in AccurateRip database
Copy OK
Track 10
Filename C:\VA (1999) - Radiodays\10 Billiger Bauer.wav
Peak level 99.0 %
Extraction speed 4.0 X
Track quality 100.0 %
Test CRC CD4E36BF
Copy CRC CD4E36BF
Track not present in AccurateRip database
Copy OK
Track 11
Filename C:\VA (1999) - Radiodays\11 Hans Koch solo.wav
Pre-gap length 0:00:02.35
Peak level 77.6 %
Extraction speed 3.7 X
Track quality 100.0 %
Test CRC 2379D415
Copy CRC 2379D415
Track not present in AccurateRip database
Copy OK
Track 12
Filename C:\VA (1999) - Radiodays\12 Cieletterra.wav
Pre-gap length 0:00:01.35
Peak level 92.4 %
Extraction speed 4.0 X
Track quality 100.0 %
Test CRC 9FEDCDE9
Copy CRC 9FEDCDE9
Track not present in AccurateRip database
Copy OK
Track 13
Filename C:\VA (1999) - Radiodays\13 Duo Frappant.wav
Pre-gap length 0:00:00.35
Peak level 98.9 %
Extraction speed 4.1 X
Track quality 100.0 %
Test CRC 3027D126
Copy CRC 3027D126
Track not present in AccurateRip database
Copy OK
Track 14
Filename C:\VA (1999) - Radiodays\14 Die Firma mit Peter Weber.wav
Pre-gap length 0:00:00.52
Peak level 99.1 %
Extraction speed 4.5 X
Track quality 100.0 %
Test CRC 161E77FB
Copy CRC 161E77FB
Track not present in AccurateRip database
Copy OK
Track 15
Filename C:\VA (1999) - Radiodays\15 Jürgen Krusche solo.wav
Pre-gap length 0:00:01.50
Peak level 90.2 %
Extraction speed 4.2 X
Track quality 100.0 %
Test CRC 150B0B11
Copy CRC 150B0B11
Track not present in AccurateRip database
Copy OK
Track 16
Filename C:\VA (1999) - Radiodays\16 Polyphonie Zürich.wav
Pre-gap length 0:00:00.30
Peak level 78.8 %
Extraction speed 3.8 X
Track quality 99.9 %
Test CRC 2EB1760A
Copy CRC 2EB1760A
Track not present in AccurateRip database
Copy OK
Track 17
Filename C:\VA (1999) - Radiodays\17 Geissberger , Kaehr , Rüdisühli , Wanderler-Deck.wav
Peak level 99.2 %
Extraction speed 4.1 X
Track quality 100.0 %
Test CRC 0037BC66
Copy CRC 0037BC66
Track not present in AccurateRip database
Copy OK
Track 18
Filename C:\VA (1999) - Radiodays\18 Peter K Frey solo.wav
Pre-gap length 0:00:02.00
Peak level 99.4 %
Extraction speed 4.7 X
Track quality 100.0 %
Test CRC 9F1F67CB
Copy CRC 9F1F67CB
Track not present in AccurateRip database
Copy OK
Track 19
Filename C:\VA (1999) - Radiodays\19 Dick , Zimmerlin , Bohnes , Müller.wav
Peak level 99.9 %
Extraction speed 4.6 X
Track quality 99.9 %
Test CRC F1B01795
Copy CRC F1B01795
Track not present in AccurateRip database
Copy OK
Track 20
Filename C:\VA (1999) - Radiodays\20 Schweizer , Favre.wav
Pre-gap length 0:00:00.65
Peak level 99.0 %
Extraction speed 4.4 X
Track quality 99.9 %
Test CRC 1EBB80E9
Copy CRC 1EBB80E9
Track not present in AccurateRip database
Copy OK
None of the tracks are present in the AccurateRip database
No errors occurred
End of status report
==== Log checksum 1597DA0216F6672A4142368F1784B9DE130FBB7FD440B1F61BA9AA96EA975FAD ====
 
Содержание индексной карты (.CUE)
REM GENRE Jazz
REM DATE 1999
REM DISCID 1C108E14
REM COMMENT "ExactAudioCopy v1.0b2"
CATALOG 0000000000000
PERFORMER "Various Artists"
TITLE "Radiodays"
FILE "01 Werner Ludi solo.wav" WAVE
TRACK 01 AUDIO
TITLE "Werner Ludi solo"
PERFORMER "Werner Ludi"
ISRC CH1909900001
INDEX 01 00:00:00
TRACK 02 AUDIO
TITLE "Nyanda"
PERFORMER "Andreas Stahel, Bernhard Gottert"
ISRC CH1909900002
INDEX 00 03:01:32
FILE "02 Nyanda.wav" WAVE
INDEX 01 00:00:00
TRACK 03 AUDIO
TITLE "Voerkel / Lovens"
PERFORMER "Urs Voerkel, Paul Lovens"
ISRC CH1909900003
INDEX 00 02:19:72
FILE "03 Voerkel , Lovens.wav" WAVE
INDEX 01 00:00:00
TRACK 04 AUDIO
TITLE "Buhler / Kramis / Wolfarth"
PERFORMER "Buhler, Kramis, Wolfarth"
ISRC CH1909900004
INDEX 00 04:31:47
FILE "04 Buhler , Kramis , Wolfarth.wav" WAVE
INDEX 01 00:00:00
TRACK 05 AUDIO
TITLE "Co Streiff Sextett"
PERFORMER "Co Streiff, Tommy Meier, Christoph Gantert, Ben Jeger, Christian Hartmann, Fr..."
ISRC CH1909900005
INDEX 00 04:54:40
FILE "05 Co Streiff Sextett.wav" WAVE
INDEX 01 00:00:00
TRACK 06 AUDIO
TITLE "Markus Eichenberger solo"
PERFORMER "Markus Eichenberger"
ISRC CH1909900006
INDEX 00 05:04:48
FILE "06 Markus Eichenberger solo.wav" WAVE
INDEX 01 00:00:00
TRACK 07 AUDIO
TITLE "Afro Garage"
PERFORMER "Christoph Baumann, Jacques Siron, Dieter Ulrich"
ISRC CH1909900007
INDEX 00 02:55:68
FILE "07 Afro Garage.wav" WAVE
INDEX 01 00:00:00
TRACK 08 AUDIO
TITLE "Muller / Seigner"
PERFORMER "Michel Seigner, Gunter Muller"
ISRC CH1909900008
INDEX 00 03:46:63
FILE "08 Muller , Seigner.wav" WAVE
INDEX 01 00:00:00
TRACK 09 AUDIO
TITLE "4 Venti Quattro"
PERFORMER "Ursula Maehr, Susann Wehrli, Mathias Arter, Valentin Vecellio"
ISRC CH1909900009
INDEX 00 04:23:48
FILE "09 4 Venti Quattro.wav" WAVE
INDEX 01 00:00:00
FILE "10 Billiger Bauer.wav" WAVE
TRACK 10 AUDIO
TITLE "Billiger Bauer"
PERFORMER "Kurt Gramiger, Omri Ziegele, Peter Landis, Placidus Schelbert, Gabriela Fried..."
ISRC CH1909900010
INDEX 01 00:00:00
TRACK 11 AUDIO
TITLE "Hans Koch solo"
PERFORMER "Hans Koch"
ISRC CH1909900011
INDEX 00 04:03:53
FILE "11 Hans Koch solo.wav" WAVE
INDEX 01 00:00:00
TRACK 12 AUDIO
TITLE "Cieletterra"
PERFORMER "Fredi Luscher, Cristine Wildbolz, Margrit Rieben"
ISRC CH1909900012
INDEX 00 02:01:12
FILE "12 Cieletterra.wav" WAVE
INDEX 01 00:00:00
TRACK 13 AUDIO
TITLE "Duo Frappant"
PERFORMER "Gabriela Friedli, Priska Walss"
ISRC CH1909900013
INDEX 00 02:37:23
FILE "13 Duo Frappant.wav" WAVE
INDEX 01 00:00:00
TRACK 14 AUDIO
TITLE "Die Firma mit Peter Weber"
PERFORMER "Christian Strassle, Mathes Seidl, Martin Birnstiel, Marino Pliakas, Peter Weber"
ISRC CH1909900014
INDEX 00 02:44:05
FILE "14 Die Firma mit Peter Weber.wav" WAVE
INDEX 01 00:00:00
TRACK 15 AUDIO
TITLE "Jurgen Krusche solo"
PERFORMER "Jurgen Krusche"
ISRC CH1909900015
INDEX 00 04:32:58
FILE "15 Jurgen Krusche solo.wav" WAVE
INDEX 01 00:00:00
TRACK 16 AUDIO
TITLE "Polyphonie Zurich"
PERFORMER "Stephan Wittwer, Ernst Thoma"
ISRC CH1909900016
INDEX 00 02:26:32
FILE "16 Polyphonie Zurich.wav" WAVE
INDEX 01 00:00:00
FILE "17 Geissberger , Kaehr , Rudisuhli , Wanderler-Deck.wav" WAVE
TRACK 17 AUDIO
TITLE "Geissberger / Kaehr / Rudisuhli / Wanderler-Deck"
PERFORMER "Helen Geissberger, Agathe Kaehr, Beni Rudisuli, Elisabeth Wandeler-Deck"
ISRC CH1909900017
INDEX 01 00:00:00
TRACK 18 AUDIO
TITLE "Peter K Frey solo"
PERFORMER "Peter K Frey"
ISRC CH1909900018
INDEX 00 01:51:48
FILE "18 Peter K Frey solo.wav" WAVE
INDEX 01 00:00:00
FILE "19 Dick , Zimmerlin , Bohnes , Muller.wav" WAVE
TRACK 19 AUDIO
TITLE "Dick / Zimmerlin / Bohnes / Muller"
PERFORMER "Robert Dick, Alfred Zimmerlin, Jochen Bohnes, Gunter Muller, "
ISRC CH1909900019
INDEX 01 00:00:00
TRACK 20 AUDIO
TITLE "Schweizer / Favre"
PERFORMER "Irene Schweizer, Pierre Favre"
ISRC CH1909900020
INDEX 00 05:03:67
FILE "20 Schweizer , Favre.wav" WAVE
INDEX 01 00:00:00
Доп. информация: Recorded during WIM-Radio Days, between 11 January and 12 July 1998.
Any questions -> support@pro-jazz.com. По всем вопросам пишите -> support@pro-jazz.com
03:02
181
Нет комментариев. Ваш будет первым!