Вы используете незарегистрированную версию компонента "Вкладки"!

Поиск

(Avant-Garde Jazz)Va - October Meeting 1987, Vol. 1 &2, FLAC (tracks+.cue) lossless

(Avant-Garde Jazz)Va - October Meeting 1987, Vol. 1 &2, FLAC (tracks+.cue) lossless
Треклист:


Va - October Meeting 1987, Vol. 1 &2

Жанр:Avant-Garde Jazz
Год выпуска: 1987
Формат: FLAC (tracks+.cue)
Битрейт аудио: lossless
Продолжительность:
Источник: what.cd


Vol. 1

01 Total Loss Number One ( Dresser, Janssen, VanDuynhoven, Zorn )
02 Total Loss G-Blues ( Dresser, Janssen, VanDuynhoven, Zorn )
03 Total Loss Broezimann ( Dresser, Janssen, VanDuynhoven, Zorn )
04 Et on t'a fait Douter.flac ( Bauer, Bauer, Janssen, Wiebos)
05 Duo (C.Marclay, L.Sclavis)

 
.log
Exact Audio Copy V0.99 prebeta 5 from 4. May 2009
EAC extraction logfile from 12. September 2009, 20:20
October Meeting / 87 1
Used drive : Optiarc DVD RW AD-7170S Adapter: 5 ID: 0
Read mode : Secure
Utilize accurate stream : Yes
Defeat audio cache : Yes
Make use of C2 pointers : No
Read offset correction : 48
Overread into Lead-In and Lead-Out : No
Fill up missing offset samples with silence : Yes
Delete leading and trailing silent blocks : No
Null samples used in CRC calculations : Yes
Used interface : Installed external ASPI interface
Gap handling : Appended to previous track
Used output format : User Defined Encoder
Selected bitrate : 1024 kBit/s
Quality : High
Add ID3 tag : No
Command line compressor : C:\Program Files\FLAC\flac.exe
Additional command line options : -8 -V -T "ARTIST=%a" -T "TITLE=%t" -T "ALBUM=%g" -T "DATE=%y" -T "TRACKNUMBER=%n" -T "GENRE=%m" -T "COMMENT=EAC FLAC -8" %s
TOC of the extracted CD
Track | Start | Length | Start sector | End sector
---------------------------------------------------------
1 | 0:00.00 | 8:04.05 | 0 | 36304
2 | 8:04.05 | 7:47.28 | 36305 | 71357
3 | 15:51.33 | 8:21.57 | 71358 | 108989
4 | 24:13.15 | 12:12.53 | 108990 | 163942
5 | 36:25.68 | 27:38.00 | 163943 | 288292
Track 1
Filename I:\New Jazz, Improv, Anantgarde\October meeting 87 - Part 1 Improvised Music\01 - Total Loss Number One.wav
Pre-gap length 0:00:02.00
Peak level 100.0 %
Track quality 100.0 %
Test CRC 69FE4AB3
Copy CRC 69FE4AB3
Cannot be verified as accurate (confidence 2) [02A357DD], AccurateRip returned [92AB351A]
Copy OK
Track 2
Filename I:\New Jazz, Improv, Anantgarde\October meeting 87 - Part 1 Improvised Music\02 - Total Loss G-Blues.wav
Peak level 69.7 %
Track quality 100.0 %
Test CRC A8268940
Copy CRC A8268940
Cannot be verified as accurate (confidence 2) [477583B1], AccurateRip returned [688D4962]
Copy OK
Track 3
Filename I:\New Jazz, Improv, Anantgarde\October meeting 87 - Part 1 Improvised Music\03 - Total Loss Broezimann.wav
Peak level 100.0 %
Track quality 99.9 %
Test CRC A85AB893
Copy CRC A85AB893
Cannot be verified as accurate (confidence 2) [D45A9661], AccurateRip returned [59D9168E]
Copy OK
Track 4
Filename I:\New Jazz, Improv, Anantgarde\October meeting 87 - Part 1 Improvised Music\04 - Et on t'a fait Douter.wav
Peak level 72.1 %
Track quality 100.0 %
Test CRC D2B6AEC6
Copy CRC D2B6AEC6
Cannot be verified as accurate (confidence 2) [D042EA16], AccurateRip returned [0BD42CD1]
Copy OK
Track 5
Filename I:\New Jazz, Improv, Anantgarde\October meeting 87 - Part 1 Improvised Music\05 - Duo (C.Marclay, L.Sclavis).wav
Peak level 99.3 %
Track quality 99.9 %
Test CRC 3AB77429
Copy CRC 3AB77429
Cannot be verified as accurate (confidence 2) [3857C097], AccurateRip returned [493755C3]
Copy OK
No tracks could be verified as accurate
You may have a different pressing from the one(s) in the database
No errors occurred
End of status report
 
.cue
REM GENRE Avant - jazz
REM DATE 1987
CATALOG 001
PERFORMER "Various artists"
TITLE "October Meeting 1987, Vol. 1"
FILE "01 Total Loss Number One.flac" WAVE
TRACK 01 AUDIO
TITLE "Total Loss Number One"
PERFORMER "Dresser, Janssen, VanDuynhoven, Zorn"
INDEX 01 00:00:00
FILE "02 Total Loss G-Blues.flac" WAVE
TRACK 02 AUDIO
TITLE "Total Loss G-Blues"
PERFORMER "Dresser, Janssen, VanDuynhoven, Zorn"
INDEX 01 00:00:00
FILE "03 Total Loss Broezimann.flac" WAVE
TRACK 03 AUDIO
TITLE "Total Loss Broezimann"
PERFORMER "Dresser, Janssen, VanDuynhoven, Zorn"
INDEX 01 00:00:00
FILE "04 Et on t'a fait Douter.flac" WAVE
TRACK 04 AUDIO
TITLE "Et on t'a fait Douter"
PERFORMER "Bauer, Bauer, Janssen, Wiebos"
INDEX 01 00:00:00
FILE "05 Duo (C.Marclay, L.Sclavis).flac" WAVE
TRACK 05 AUDIO
TITLE "Duo (C.Marclay, L.Sclavis)"
PERFORMER "Marclay, Sclavis"
INDEX 01 00:00:00



Vol. 2

01 Second Line Ratoon (Hemingway)
02 Cruise Button Caribe (Douglas)
03 Cruise Button Kindewu (Moore)
04 Cruise Button Innermission (Moore)
05 Cruise Button Cumbia.flac (Douglas)

 
.log
Exact Audio Copy V0.99 prebeta 5 from 4. May 2009
EAC extraction logfile from 12. September 2009, 18:56
Various / October meeting 87 - Part 2: Improvised Music
Used drive : Optiarc DVD RW AD-7170S Adapter: 5 ID: 0
Read mode : Secure
Utilize accurate stream : Yes
Defeat audio cache : Yes
Make use of C2 pointers : No
Read offset correction : 48
Overread into Lead-In and Lead-Out : No
Fill up missing offset samples with silence : Yes
Delete leading and trailing silent blocks : No
Null samples used in CRC calculations : Yes
Used interface : Installed external ASPI interface
Gap handling : Appended to previous track
Used output format : User Defined Encoder
Selected bitrate : 1024 kBit/s
Quality : High
Add ID3 tag : No
Command line compressor : C:\Program Files\FLAC\flac.exe
Additional command line options : -8 -V -T "ARTIST=%a" -T "TITLE=%t" -T "ALBUM=%g" -T "DATE=%y" -T "TRACKNUMBER=%n" -T "GENRE=%m" -T "COMMENT=EAC FLAC -8" %s
TOC of the extracted CD
Track | Start | Length | Start sector | End sector
---------------------------------------------------------
1 | 0:00.00 | 37:00.30 | 0 | 166529
2 | 37:00.30 | 12:08.33 | 166530 | 221162
3 | 49:08.63 | 7:57.05 | 221163 | 256942
4 | 57:05.68 | 7:23.35 | 256943 | 290202
5 | 64:29.28 | 9:20.55 | 290203 | 332257
Track 1
Filename I:\New Jazz, Improv, Anantgarde\October meeting 87 - Part 2 Improvised Music\01 - Track01 - Track01.wav
Pre-gap length 0:00:02.00
Suspicious position 0:16:40
Suspicious position 0:33:06
Suspicious position 0:33:09
Peak level 100.0 %
Track quality 99.8 %
Test CRC 19521354
Copy CRC C892D62A
Cannot be verified as accurate (confidence 1) [7A6024BD], AccurateRip returned [0FF76EF6]
Copy finished
Track 2
Filename I:\New Jazz, Improv, Anantgarde\October meeting 87 - Part 2 Improvised Music\02 - Track02 - Track02.wav
Peak level 96.2 %
Track quality 99.9 %
Test CRC F7E74504
Copy CRC F7E74504
Cannot be verified as accurate (confidence 1) [47413650], AccurateRip returned [D71338BC]
Copy OK
Track 3
Filename I:\New Jazz, Improv, Anantgarde\October meeting 87 - Part 2 Improvised Music\03 - Track03 - Track03.wav
Peak level 43.7 %
Track quality 100.0 %
Test CRC AB5BE9A2
Copy CRC AB5BE9A2
Cannot be verified as accurate (confidence 1) [ACB3FE86], AccurateRip returned [0088B98D]
Copy OK
Track 4
Filename I:\New Jazz, Improv, Anantgarde\October meeting 87 - Part 2 Improvised Music\04 - Track04 - Track04.wav
Peak level 95.4 %
Track quality 100.0 %
Test CRC C6D67D8C
Copy CRC C6D67D8C
Cannot be verified as accurate (confidence 1) [27856A3B], AccurateRip returned [B499E36E]
Copy OK
Track 5
Filename I:\New Jazz, Improv, Anantgarde\October meeting 87 - Part 2 Improvised Music\05 - Track05 - Track05.wav
Peak level 97.4 %
Track quality 100.0 %
Test CRC C0AEB94D
Copy CRC C0AEB94D
Cannot be verified as accurate (confidence 1) [25864051], AccurateRip returned [FF13F68D]
Copy OK
No tracks could be verified as accurate
There were errors
End of status report
 
.cue
REM GENRE Avant - jazz
REM DATE 1987
CATALOG 002
PERFORMER "Various artists"
TITLE "October Meeting 1987, Vol. 2"
FILE "01 Second Line Ratoon.flac" WAVE
TRACK 01 AUDIO
TITLE "Second Line Ratoon"
PERFORMER "Hemingway"
INDEX 01 00:00:00
FILE "02 Cruise Button Caribe.flac" WAVE
TRACK 02 AUDIO
TITLE "Cruise Button: Caribe"
PERFORMER "Douglas"
INDEX 01 00:00:00
FILE "03 Cruise Button Kindewu.flac" WAVE
TRACK 03 AUDIO
TITLE "Cruise Button: Kindewu"
PERFORMER "Moore"
INDEX 01 00:00:00
FILE "04 Cruise Button Innermission.flac" WAVE
TRACK 04 AUDIO
TITLE "Cruise Button: Innermission"
PERFORMER "Moore"
INDEX 01 00:00:00
FILE "05 Cruise Button Cumbia.flac" WAVE
TRACK 05 AUDIO
TITLE "Cruise Button: Cumbia"
PERFORMER "Douglas"
INDEX 01 00:00:00

http://www.allmusic.com/album/r501855
http://www.allmusic.com/album/r501857
другие релизы
Any questions -> support@pro-jazz.com. По всем вопросам пишите -> support@pro-jazz.com
12:43
201
Нет комментариев. Ваш будет первым!