Вы используете незарегистрированную версию компонента "Вкладки"!

Поиск

(Avant-Garde Jazz, Trombone Jazz) Roswell Rudd Quartet - Keep Your Heart Right - 2008, FLAC (tracks+.cue), lossless

(Avant-Garde Jazz, Trombone Jazz) Roswell Rudd Quartet - Keep Your Heart Right - 2008, FLAC (tracks+.cue), lossless
Треклист:
Roswell Rudd Quartet - Keep Your Heart Right
Жанр: Avant-Garde Jazz, Trombone Jazz
Год выпуска диска: 2008
Производитель диска: USA (Sunnyside)
Аудио кодек: FLAC
Тип рипа: tracks+.cue
Битрейт аудио: lossless
Продолжительность: 61:22
Рип с собственного CD
Треклист:
01. Keep Your Heart Right [0:06:38.52]
02. Loved By Love [0:05:25.73]
03. I Look In the Mirror [0:05:02.28]
04. The Light is With Me [0:07:14.48]
05. I'm Going Sane (One Day At a Time) [0:05:41.48]
06. Bamako [0:05:57.66]
07. All Nite Soul [0:06:48.48]
08. Suh Blah Blah Buh Sibi [0:07:21.44]
09. You Blew It [0:04:30.55]
10. Whatever Turns You On Baby [0:06:40.37]
Доп. информация:
Roswell Rudd Quartet:
Roswell Rudd (trombone);
Sunny Kim (vocals);
Lafayette Harris, Jr. (piano);
Brad Jones (bass).
In memorium: Henrietta Yurchenco
 
info
Trombonist Roswell Rudd has always been known for his left-field avant-jazz excursions, but 2008's KEEP YOUR HEART RIGHT is as warm, familiar, and smooth-tasting as a hot toddy. Rudd and his group deliver a program of 10 originals, many of which have melodies that recall classics from the Great American Songbook. Beautifully arranged and played, the real treat here is singer Sunny Kim, whose crystal-clear soprano transforms Rudd's tunes into something heavenly. Those looking for a twist on classic vocal jazz are in for a treat.
 
log
Exact Audio Copy V0.99 prebeta 3 from 28. July 2007
EAC extraction logfile from 3. August 2010, 21:56
Roswell Rudd Quartet / Keep Your Heart Right
Used drive : HL-DT-STDVDRAM GSA-4165B Adapter: 1 ID: 0
Read mode : Secure
Utilize accurate stream : Yes
Defeat audio cache : Yes
Make use of C2 pointers : No
Read offset correction : 667
Overread into Lead-In and Lead-Out : No
Fill up missing offset samples with silence : Yes
Delete leading and trailing silent blocks : No
Null samples used in CRC calculations : Yes
Used interface : Native Win32 interface for Win NT & 2000
Gap handling : Not detected, thus appended to previous track
Used output format : User Defined Encoder
Selected bitrate : 768 kBit/s
Quality : High
Add ID3 tag : No
Command line compressor : C:\Program Files\Exact Audio Copy\FLAC\FLAC.EXE
Additional command line options : -6 -V -T "ARTIST=%a" -T "TITLE=%t" -T "ALBUM=%g" -T "DATE=%y" -T "TRACKNUMBER=%n" -T "GENRE=%m" -T "COMMENT=%e" %s -o %d
TOC of the extracted CD
Track | Start | Length | Start sector | End sector
---------------------------------------------------------
1 | 0:00.00 | 6:38.52 | 0 | 29901
2 | 6:38.52 | 5:25.73 | 29902 | 54349
3 | 12:04.50 | 5:02.28 | 54350 | 77027
4 | 17:07.03 | 7:14.48 | 77028 | 109625
5 | 24:21.51 | 5:41.48 | 109626 | 135248
6 | 30:03.24 | 5:57.66 | 135249 | 162089
7 | 36:01.15 | 6:48.48 | 162090 | 192737
8 | 42:49.63 | 7:21.44 | 192738 | 225856
9 | 50:11.32 | 4:30.55 | 225857 | 246161
10 | 54:42.12 | 6:40.37 | 246162 | 276198
Track 1
Filename G:\DATA\Music\Torrent\0_My_Music\Roswell Rudd Quartet - Keep Your Heart Right (2008)\Roswell Rudd Quartet-01Keep Your Heart Right.wav
Peak level 92.5 %
Track quality 100.0 %
Test CRC 205828AA
Copy CRC 205828AA
Track not present in AccurateRip database
Copy OK
Track 2
Filename G:\DATA\Music\Torrent\0_My_Music\Roswell Rudd Quartet - Keep Your Heart Right (2008)\Roswell Rudd Quartet-02Loved By Love.wav
Peak level 91.7 %
Track quality 100.0 %
Test CRC 4A7DB312
Copy CRC 4A7DB312
Track not present in AccurateRip database
Copy OK
Track 3
Filename G:\DATA\Music\Torrent\0_My_Music\Roswell Rudd Quartet - Keep Your Heart Right (2008)\Roswell Rudd Quartet-03I Look In the Mirror.wav
Peak level 93.4 %
Track quality 100.0 %
Test CRC 831B01D1
Copy CRC 831B01D1
Track not present in AccurateRip database
Copy OK
Track 4
Filename G:\DATA\Music\Torrent\0_My_Music\Roswell Rudd Quartet - Keep Your Heart Right (2008)\Roswell Rudd Quartet-04The Light is With Me.wav
Peak level 92.0 %
Track quality 99.9 %
Test CRC 53D5E6F9
Copy CRC 53D5E6F9
Track not present in AccurateRip database
Copy OK
Track 5
Filename G:\DATA\Music\Torrent\0_My_Music\Roswell Rudd Quartet - Keep Your Heart Right (2008)\Roswell Rudd Quartet-05I'm Going Sane (One Day At a Time).wav
Peak level 92.5 %
Track quality 100.0 %
Test CRC 9C16156A
Copy CRC 9C16156A
Track not present in AccurateRip database
Copy OK
Track 6
Filename G:\DATA\Music\Torrent\0_My_Music\Roswell Rudd Quartet - Keep Your Heart Right (2008)\Roswell Rudd Quartet-06Bamako.wav
Peak level 93.2 %
Track quality 100.0 %
Test CRC 7EF54105
Copy CRC 7EF54105
Track not present in AccurateRip database
Copy OK
Track 7
Filename G:\DATA\Music\Torrent\0_My_Music\Roswell Rudd Quartet - Keep Your Heart Right (2008)\Roswell Rudd Quartet-07All Nite Soul.wav
Peak level 92.9 %
Track quality 100.0 %
Test CRC DC9E3CB7
Copy CRC DC9E3CB7
Track not present in AccurateRip database
Copy OK
Track 8
Filename G:\DATA\Music\Torrent\0_My_Music\Roswell Rudd Quartet - Keep Your Heart Right (2008)\Roswell Rudd Quartet-08Suh Blah Blah Buh Sibi.wav
Peak level 92.7 %
Track quality 100.0 %
Test CRC 6F016F5C
Copy CRC 6F016F5C
Track not present in AccurateRip database
Copy OK
Track 9
Filename G:\DATA\Music\Torrent\0_My_Music\Roswell Rudd Quartet - Keep Your Heart Right (2008)\Roswell Rudd Quartet-09You Blew It.wav
Peak level 93.0 %
Track quality 100.0 %
Test CRC 69E50380
Copy CRC 69E50380
Track not present in AccurateRip database
Copy OK
Track 10
Filename G:\DATA\Music\Torrent\0_My_Music\Roswell Rudd Quartet - Keep Your Heart Right (2008)\Roswell Rudd Quartet-10Whatever Turns You On Baby.wav
Peak level 91.8 %
Track quality 99.9 %
Test CRC B0F52C5A
Copy CRC B0F52C5A
Track not present in AccurateRip database
Copy OK
None of the tracks are present in the AccurateRip database
No errors occurred
End of status report
 
cue
REM GENRE Jazz
REM DATE 2008
REM DISCID 700E620A
REM COMMENT "ExactAudioCopy v0.99pb3"
PERFORMER "Roswell Rudd Quartet"
TITLE "Keep Your Heart Right"
FILE "Roswell Rudd Quartet-01Keep Your Heart Right.wav" WAVE
TRACK 01 AUDIO
TITLE "Keep Your Heart Right "
PERFORMER "Roswell Rudd Quartet"
FLAGS DCP
INDEX 01 00:00:00
TRACK 02 AUDIO
TITLE "Loved By Love"
PERFORMER "Roswell Rudd Quartet"
INDEX 00 06:36:67
FILE "Roswell Rudd Quartet-02Loved By Love.wav" WAVE
INDEX 01 00:00:00
TRACK 03 AUDIO
TITLE "I Look In the Mirror"
PERFORMER "Roswell Rudd Quartet"
INDEX 00 05:22:67
FILE "Roswell Rudd Quartet-03I Look In the Mirror.wav" WAVE
INDEX 01 00:00:00
TRACK 04 AUDIO
TITLE "The Light is With Me"
PERFORMER "Roswell Rudd Quartet"
INDEX 00 04:58:74
FILE "Roswell Rudd Quartet-04The Light is With Me.wav" WAVE
INDEX 01 00:00:00
TRACK 05 AUDIO
TITLE "I'm Going Sane (One Day At a Time)"
PERFORMER "Roswell Rudd Quartet"
INDEX 00 07:12:14
FILE "Roswell Rudd Quartet-05I'm Going Sane (One Day At a Time).wav" WAVE
INDEX 01 00:00:00
TRACK 06 AUDIO
TITLE "Bamako"
PERFORMER "Roswell Rudd Quartet"
INDEX 00 05:39:40
FILE "Roswell Rudd Quartet-06Bamako.wav" WAVE
INDEX 01 00:00:00
TRACK 07 AUDIO
TITLE "All Nite Soul"
PERFORMER "Roswell Rudd Quartet"
INDEX 00 05:56:51
FILE "Roswell Rudd Quartet-07All Nite Soul.wav" WAVE
INDEX 01 00:00:00
TRACK 08 AUDIO
TITLE "Suh Blah Blah Buh Sibi"
PERFORMER "Roswell Rudd Quartet"
INDEX 00 06:45:49
FILE "Roswell Rudd Quartet-08Suh Blah Blah Buh Sibi.wav" WAVE
INDEX 01 00:00:00
TRACK 09 AUDIO
TITLE "You Blew It"
PERFORMER "Roswell Rudd Quartet"
INDEX 00 07:20:23
FILE "Roswell Rudd Quartet-09You Blew It.wav" WAVE
INDEX 01 00:00:00
FILE "Roswell Rudd Quartet-10Whatever Turns You On Baby.wav" WAVE
TRACK 10 AUDIO
TITLE "Whatever Turns You On Baby"
PERFORMER "Roswell Rudd Quartet"
INDEX 01 00:00:00
Стили взятые с AMG, довольно смутно определяют музыку этого альбома (авангардом здесь и не пахнет). Он будет интересен и любителям "просто" джаза. А отсутствие барабанщика просто спасло этот диск!
По всем вопросам пишите личное сообщение пользователю M0p94ok.
01:50
259
Нет комментариев. Ваш будет первым!