Вы используете незарегистрированную версию компонента "Вкладки"!

Поиск

(Avant-Garde Jazz) The Paul Bley Quartet - Solemn Meditation {1957} - 2008, FLAC (tracks+.cue), lossless

(Avant-Garde Jazz) The Paul Bley Quartet - Solemn Meditation {1957} - 2008, FLAC (tracks+.cue), lossless
Треклист:
•The Paul Bley Quartet - Solemn Meditation {1957}•
Жанр: Avant-Garde Jazz
Страна-производитель диска: Spain
Год издания: 2008
Издатель (лейбл): Fresh Sound Records
Номер по каталогу: FSR-CD 515
Аудиокодек: FLAC (*.flac)
Тип рипа: tracks+.cue
Битрейт аудио: lossless
Продолжительность: 01:13:54
Источник (релизер): Hungry Mind
Наличие сканов в содержимом раздачи: да
Треклист:
01. Birk's Works [06:03]
02. O Plus One [03:17]
03. Porgy [03:40]
04. Solemn Meditation [03:34]
05. I Remember Harlem [03:42]
06. Drum Two [03:06]
07. Everywhere [04:04]
08. Beau Didley [05:33]
09. Persian Village [03:28]
10. Triangle [03:25]
11. Valse Hot [04:20]
12. Lullaby Of The Leaves [04:36]
13. You Go To My Head [05:07]
14. For The Love Of Pike [03:33]
15. Goody Speaks [03:47]
16. Polynesia [03:29]
17. I'll Remember April [05:27]
18. Willow Weep For Me [03:53]
19. Pike's Peak [05:45]

Personnel:
Paul Bley - p
Dave Pike - vib
Charlie Haden - b
Lennie McBrowne - dr
Eugene Russell - p
John Goodman - b
Reed Vaughan - dr
 
Лог создания рипа
Exact Audio Copy V0.99 prebeta 5 from 4. May 2009
EAC extraction logfile from 1. July 2012, 15:24
The Paul Bley Quartet / Solemn Meditation
Used drive : PLDS DVD+-RW DS-8A5SH Adapter: 6 ID: 1
Read mode : Secure
Utilize accurate stream : Yes
Defeat audio cache : Yes
Make use of C2 pointers : No
Read offset correction : 6
Overread into Lead-In and Lead-Out : No
Fill up missing offset samples with silence : Yes
Delete leading and trailing silent blocks : No
Null samples used in CRC calculations : Yes
Used interface : Native Win32 interface for Win NT & 2000
Gap handling : Appended to previous track
Used output format : User Defined Encoder
Selected bitrate : 1024 kBit/s
Quality : High
Add ID3 tag : No
Command line compressor : C:\Program Files (x86)\FLAC\flac.exe
Additional command line options : -8 -V -T "ARTIST=%a" -T "TITLE=%t" -T "ALBUM=%g" -T "DATE=%y" -T "TRACKNUMBER=%n" -T "GENRE=%m" -T "COMMENT=EAC FLAC -8" %s
TOC of the extracted CD
Track | Start | Length | Start sector | End sector
---------------------------------------------------------
1 | 0:00.00 | 6:03.44 | 0 | 27268
2 | 6:03.44 | 3:17.10 | 27269 | 42053
3 | 9:20.54 | 3:40.35 | 42054 | 58588
4 | 13:01.14 | 3:34.18 | 58589 | 74656
5 | 16:35.32 | 3:42.15 | 74657 | 91321
6 | 20:17.47 | 3:06.24 | 91322 | 105295
7 | 23:23.71 | 4:04.14 | 105296 | 123609
8 | 27:28.10 | 5:33.64 | 123610 | 148648
9 | 33:01.74 | 3:28.38 | 148649 | 164286
10 | 36:30.37 | 3:25.21 | 164287 | 179682
11 | 39:55.58 | 4:20.73 | 179683 | 199255
12 | 44:16.56 | 4:36.55 | 199256 | 220010
13 | 48:53.36 | 5:07.68 | 220011 | 243103
14 | 54:01.29 | 3:33.32 | 243104 | 259110
15 | 57:34.61 | 3:47.01 | 259111 | 276136
16 | 61:21.62 | 3:29.13 | 276137 | 291824
17 | 64:51.00 | 5:27.65 | 291825 | 316414
18 | 70:18.65 | 3:53.22 | 316415 | 333911
19 | 74:12.12 | 5:45.03 | 333912 | 359789
Track 1
Filename C:\EAC rip\bley_solemn\01 - Birk's Works.wav
Pre-gap length 0:00:02.00
Peak level 84.1 %
Track quality 99.9 %
Test CRC F48B9081
Copy CRC F48B9081
Track not present in AccurateRip database
Copy OK
Track 2
Filename C:\EAC rip\bley_solemn\02 - O Plus One.wav
Peak level 100.0 %
Track quality 100.0 %
Test CRC 77A9AFD6
Copy CRC 77A9AFD6
Track not present in AccurateRip database
Copy OK
Track 3
Filename C:\EAC rip\bley_solemn\03 - Porgy.wav
Peak level 100.0 %
Track quality 99.9 %
Test CRC 1D2DB47F
Copy CRC 1D2DB47F
Track not present in AccurateRip database
Copy OK
Track 4
Filename C:\EAC rip\bley_solemn\04 - Solemn Meditation.wav
Peak level 92.2 %
Track quality 100.0 %
Test CRC A5576C32
Copy CRC A5576C32
Track not present in AccurateRip database
Copy OK
Track 5
Filename C:\EAC rip\bley_solemn\05 - I Remember Harlem.wav
Peak level 81.9 %
Track quality 100.0 %
Test CRC 909CFA62
Copy CRC 909CFA62
Track not present in AccurateRip database
Copy OK
Track 6
Filename C:\EAC rip\bley_solemn\06 - Drum Two.wav
Peak level 100.0 %
Track quality 100.0 %
Test CRC 60A45685
Copy CRC 60A45685
Track not present in AccurateRip database
Copy OK
Track 7
Filename C:\EAC rip\bley_solemn\07 - Everywhere.wav
Peak level 95.4 %
Track quality 100.0 %
Test CRC B7649921
Copy CRC B7649921
Track not present in AccurateRip database
Copy OK
Track 8
Filename C:\EAC rip\bley_solemn\08 - Beau Didley.wav
Peak level 100.0 %
Track quality 100.0 %
Test CRC DC3A3084
Copy CRC DC3A3084
Track not present in AccurateRip database
Copy OK
Track 9
Filename C:\EAC rip\bley_solemn\09 - Persian Village.wav
Peak level 80.3 %
Track quality 100.0 %
Test CRC EE3B2E48
Copy CRC EE3B2E48
Track not present in AccurateRip database
Copy OK
Track 10
Filename C:\EAC rip\bley_solemn\10 - Triangle.wav
Peak level 82.5 %
Track quality 100.0 %
Test CRC B0A639C3
Copy CRC B0A639C3
Track not present in AccurateRip database
Copy OK
Track 11
Filename C:\EAC rip\bley_solemn\11 - Valse Hot.wav
Peak level 79.6 %
Track quality 99.9 %
Test CRC 40BA5ED8
Copy CRC 40BA5ED8
Track not present in AccurateRip database
Copy OK
Track 12
Filename C:\EAC rip\bley_solemn\12 - Lullaby Of The Leaves.wav
Peak level 82.7 %
Track quality 100.0 %
Test CRC 5F5DA043
Copy CRC 5F5DA043
Track not present in AccurateRip database
Copy OK
Track 13
Filename C:\EAC rip\bley_solemn\13 - You Go To My Head.wav
Peak level 84.1 %
Track quality 100.0 %
Test CRC 1973E44D
Copy CRC 1973E44D
Track not present in AccurateRip database
Copy OK
Track 14
Filename C:\EAC rip\bley_solemn\14 - For The Love Of Pike.wav
Peak level 88.2 %
Track quality 100.0 %
Test CRC A6B06BED
Copy CRC A6B06BED
Track not present in AccurateRip database
Copy OK
Track 15
Filename C:\EAC rip\bley_solemn\15 - Goody Speaks.wav
Peak level 72.7 %
Track quality 100.0 %
Test CRC B0F92BB8
Copy CRC B0F92BB8
Track not present in AccurateRip database
Copy OK
Track 16
Filename C:\EAC rip\bley_solemn\16 - Polynesia.wav
Peak level 96.5 %
Track quality 100.0 %
Test CRC 055E8AEB
Copy CRC 055E8AEB
Track not present in AccurateRip database
Copy OK
Track 17
Filename C:\EAC rip\bley_solemn\17 - I'll Remember April.wav
Peak level 84.5 %
Track quality 100.0 %
Test CRC 8544C679
Copy CRC 8544C679
Track not present in AccurateRip database
Copy OK
Track 18
Filename C:\EAC rip\bley_solemn\18 - Willow Weep For Me.wav
Peak level 99.7 %
Track quality 100.0 %
Test CRC 8F2F7807
Copy CRC 8F2F7807
Track not present in AccurateRip database
Copy OK
Track 19
Filename C:\EAC rip\bley_solemn\19 - Pike's Peak.wav
Peak level 75.1 %
Track quality 99.9 %
Test CRC CC534C3D
Copy CRC CC534C3D
Track not present in AccurateRip database
Copy OK
None of the tracks are present in the AccurateRip database
No errors occurred
End of status report
 
Содержание индексной карты (.CUE)
REM GENRE Jazz
REM DATE 2008
REM DISCID 2E12BD13
REM COMMENT "ExactAudioCopy v0.99pb5"
PERFORMER "The Paul Bley Quartet"
TITLE "Solemn Meditation"
FILE "01 - Birk's Works.wav" WAVE
TRACK 01 AUDIO
TITLE "Birk's Works"
PERFORMER "The Paul Bley Quartet"
INDEX 01 00:00:00
FILE "02 - O Plus One.wav" WAVE
TRACK 02 AUDIO
TITLE "O Plus One"
PERFORMER "The Paul Bley Quartet"
INDEX 01 00:00:00
FILE "03 - Porgy.wav" WAVE
TRACK 03 AUDIO
TITLE "Porgy"
PERFORMER "The Paul Bley Quartet"
INDEX 01 00:00:00
FILE "04 - Solemn Meditation.wav" WAVE
TRACK 04 AUDIO
TITLE "Solemn Meditation"
PERFORMER "The Paul Bley Quartet"
INDEX 01 00:00:00
FILE "05 - I Remember Harlem.wav" WAVE
TRACK 05 AUDIO
TITLE "I Remember Harlem"
PERFORMER "The Paul Bley Quartet"
INDEX 01 00:00:00
FILE "06 - Drum Two.wav" WAVE
TRACK 06 AUDIO
TITLE "Drum Two"
PERFORMER "The Paul Bley Quartet"
INDEX 01 00:00:00
FILE "07 - Everywhere.wav" WAVE
TRACK 07 AUDIO
TITLE "Everywhere"
PERFORMER "The Paul Bley Quartet"
INDEX 01 00:00:00
FILE "08 - Beau Didley.wav" WAVE
TRACK 08 AUDIO
TITLE "Beau Didley"
PERFORMER "The Paul Bley Quartet"
INDEX 01 00:00:00
FILE "09 - Persian Village.wav" WAVE
TRACK 09 AUDIO
TITLE "Persian Village"
PERFORMER "The Paul Bley Quartet"
INDEX 01 00:00:00
FILE "10 - Triangle.wav" WAVE
TRACK 10 AUDIO
TITLE "Triangle"
PERFORMER "The Paul Bley Quartet"
INDEX 01 00:00:00
FILE "11 - Valse Hot.wav" WAVE
TRACK 11 AUDIO
TITLE "Valse Hot"
PERFORMER "The Paul Bley Quartet"
INDEX 01 00:00:00
FILE "12 - Lullaby Of The Leaves.wav" WAVE
TRACK 12 AUDIO
TITLE "Lullaby Of The Leaves"
PERFORMER "The Paul Bley Quartet"
INDEX 01 00:00:00
FILE "13 - You Go To My Head.wav" WAVE
TRACK 13 AUDIO
TITLE "You Go To My Head"
PERFORMER "The Paul Bley Quartet"
INDEX 01 00:00:00
FILE "14 - For The Love Of Pike.wav" WAVE
TRACK 14 AUDIO
TITLE "For The Love Of Pike"
PERFORMER "The Paul Bley Quartet"
INDEX 01 00:00:00
FILE "15 - Goody Speaks.wav" WAVE
TRACK 15 AUDIO
TITLE "Goody Speaks"
PERFORMER "The Paul Bley Quartet"
INDEX 01 00:00:00
FILE "16 - Polynesia.wav" WAVE
TRACK 16 AUDIO
TITLE "Polynesia"
PERFORMER "The Paul Bley Quartet"
INDEX 01 00:00:00
FILE "17 - I'll Remember April.wav" WAVE
TRACK 17 AUDIO
TITLE "I'll Remember April"
PERFORMER "The Paul Bley Quartet"
INDEX 01 00:00:00
FILE "18 - Willow Weep For Me.wav" WAVE
TRACK 18 AUDIO
TITLE "Willow Weep For Me"
PERFORMER "The Paul Bley Quartet"
INDEX 01 00:00:00
FILE "19 - Pike's Peak.wav" WAVE
TRACK 19 AUDIO
TITLE "Pike's Peak"
PERFORMER "The Paul Bley Quartet"
INDEX 01 00:00:00
Any questions -> support@pro-jazz.com. По всем вопросам пишите -> support@pro-jazz.com
02:13
238
Нет комментариев. Ваш будет первым!