Вы используете незарегистрированную версию компонента "Вкладки"!

Поиск

(Avant-Garde Jazz) The Art Ensemble Of Chicago - Fanfare For The Warriors {1974} - 1998, FLAC (image+.cue), lossless

(Avant-Garde Jazz) The Art Ensemble Of Chicago - Fanfare For The Warriors {1974} - 1998, FLAC (image+.cue), lossless
Треклист:
•The Art Ensemble Of Chicago - Fanfare For The Warriors {1974}•
Жанр: Avant-Garde Jazz
Страна-производитель диска: U.S.A.
Год издания диска: 1998
Издатель (лейбл): Koch Records
Номер по каталогу: KOC-CD-8501
Аудиокодек: FLAC (*.flac)
Тип рипа: image+.cue
Битрейт аудио: lossless
Продолжительность: 00:38:57
Источник (релизер): Рип с диска.
Наличие сканов в содержимом раздачи: да
Треклист:
01. Illistrum
02. Barnyard Scuffel Schuffel
03. Nonaah
04. Fanfare For The Warriors
05. What's To Say
06. Tnoona
07. The Key
Personnel:
Lester Bowie - Trumpet, Flugelhorn
Roscoe Mitchell - Alto Sax, Tenor Sax, Piccolo
Joseph Jarman - Alto Sax, Tenor Sax, Flute
Muhal Richard Abrams - Piano
Malachi Favors - Bass
Don Moye - PercussionRecorded at Paragon Studios, Chicago, Ill. in September 1973.
 
Лог создания рипа
Exact Audio Copy V1.0 beta 3 from 29. August 2011
Отчёт EAC об извлечении, выполненном 6. января 2012, 15:06
Art Ensemble of Chicago / Fanfare For The Warriors
Дисковод: TSSTcorpCDDVDW SH-S223C Adapter: 5 ID: 0
Режим чтения : Достоверность
Использование точного потока : Да
Отключение кэша аудио : Да
Использование указателей C2 : Нет
Коррекция смещения при чтении : 697
Способность читать области Lead-in и Lead-out : Нет
Заполнение пропущенных сэмплов тишиной : Да
Удаление блоков с тишиной в начале и конце : Нет
При вычислениях CRC использовались нулевые сэмплы : Да
Интерфейс : Установленный внешний ASPI-интерфейс
Выходной формат : Пользовательский кодировщик
Выбранный битрейт : 128 kBit/s
Качество : Высокий
Добавление ID3-тега : Нет
Утилита сжатия : C:\Program Files\Exact Audio Copy\Flac\flac.exe
Дополнительные параметры : -V -8 -T "Genre=%genre%" -T "Artist=%artist%" -T "Title=%title%" -T "Album=%albumtitle%" -T "Date=%year%" -T "Tracknumber=%tracknr%" -T "Comment=%comment%" %source%
TOC извлечённого CD
Трек | Старт | Длительность | Начальный сектор | Конечный сектор
---------------------------------------------------------------------
1 | 0:00.32 | 8:17.28 | 32 | 37334
2 | 8:17.60 | 5:12.67 | 37335 | 60801
3 | 13:30.52 | 5:44.60 | 60802 | 86661
4 | 19:15.37 | 7:58.45 | 86662 | 122556
5 | 27:14.07 | 4:02.40 | 122557 | 140746
6 | 31:16.47 | 6:25.20 | 140747 | 169641
7 | 37:41.67 | 1:15.55 | 169642 | 175321
Характеристики диапазона извлечения и сообщения об ошибках
Выбранный диапазон
Имя файла C:\Шахматы\1998.The Art Ensemble Of Chicago - Fanfare For The Warriors\Art Ensemble of Chicago - Fanfare For The Warriors.wav
Пиковый уровень 99.9 %
Скорость извлечения 3.0 X
Качество диапазона 99.9 %
CRC теста 80D5FD52
CRC копии 80D5FD52
Копирование... OK
Ошибок не произошло
AccurateRip: сводка
Трек 1 : извлечено точно (доверие 2) [8886DAF3] (AR v2)
Трек 2 : извлечено точно (доверие 2) [7FBB2E51] (AR v2)
Трек 3 : извлечено точно (доверие 2) [8167D696] (AR v2)
Трек 4 : извлечено точно (доверие 2) [9CE11D0F] (AR v2)
Трек 5 : извлечено точно (доверие 2) [9820DDBD] (AR v2)
Трек 6 : извлечено точно (доверие 2) [208AE6C3] (AR v2)
Трек 7 : извлечено точно (доверие 2) [C5B02817] (AR v2)
Все треки извлечены точно
Конец отчёта
==== Контрольная сумма отчёта 21E7F2971577D251037F473CF261891EFBEF053F00453630B21D7E4F48C46C60 ====
 
Содержание индексной карты (.CUE)
REM GENRE Jazz
REM DATE 1998
REM DISCID 66092107
REM COMMENT "ExactAudioCopy v1.0b3"
PERFORMER "Art Ensemble of Chicago"
TITLE "Fanfare For The Warriors"
FILE "Art Ensemble of Chicago - Fanfare For The Warriors.flac" WAVE
TRACK 01 AUDIO
TITLE "Illistrum"
PERFORMER "Art Ensemble of Chicago"
INDEX 00 00:00:00
INDEX 01 00:00:32
TRACK 02 AUDIO
TITLE "Barnyard Scuffel Shuffel"
PERFORMER "Art Ensemble of Chicago"
INDEX 00 08:14:05
INDEX 01 08:17:60
TRACK 03 AUDIO
TITLE "Nonaah"
PERFORMER "Art Ensemble of Chicago"
INDEX 00 13:26:50
INDEX 01 13:30:52
TRACK 04 AUDIO
TITLE "Fanfare For The Warriors"
PERFORMER "Art Ensemble of Chicago"
INDEX 00 19:11:62
INDEX 01 19:15:37
TRACK 05 AUDIO
TITLE "What's To Say"
PERFORMER "Art Ensemble of Chicago"
INDEX 00 27:12:50
INDEX 01 27:14:07
TRACK 06 AUDIO
TITLE "Tnoona"
PERFORMER "Art Ensemble of Chicago"
INDEX 00 31:13:22
INDEX 01 31:16:47
TRACK 07 AUDIO
TITLE "The Key"
PERFORMER "Art Ensemble of Chicago"
INDEX 00 37:38:55
INDEX 01 37:41:67
 
CUETools
[CUETools log; Date: 21.04.2012 19:26:50; Version: 2.1.2a]
Pregap length 00:00:32.
HDCD: peak extend: none, transient filter: none, gain: none
[CTDB TOCID: 0IS3Yb3gk1OsBmtPHQD1I.RvB3s-] disk not present in database.
[AccurateRip ID: 000c1a0b-0046f855-66092107] found.
Track [ CRC ] Status
01 [39f8f1eb] (5/7) Accurately ripped
02 [db2dd19f] (5/7) Accurately ripped
03 [ad71693f] (5/7) Accurately ripped
04 [656a3a22] (5/7) Accurately ripped
05 [c0b5fab9] (5/7) Accurately ripped
06 [6644a722] (5/7) Accurately ripped
07 [33a2bed7] (5/7) Accurately ripped
AccurateRip v2:
01 [8886daf3] (2/7) Accurately ripped
02 [7fbb2e51] (2/7) Accurately ripped
03 [8167d696] (2/7) Accurately ripped
04 [9ce11d0f] (2/7) Accurately ripped
05 [9820ddbd] (2/7) Accurately ripped
06 [208ae6c3] (2/7) Accurately ripped
07 [c5b02817] (2/7) Accurately ripped
Track Peak [ CRC32 ] [W/O NULL] [ LOG ]
-- 99,9 [80D5FD52] [9349AC97] CRC32
01 79,1 [31E7D357] [5CA43B3B]
02 99,9 [1A321D28] [D7627869]
03 95,6 [909B4497] [EFED6D45]
04 91,0 [3608D9B8] [F1AE23C3]
05 63,9 [BFE282F9] [EFA73084]
06 90,7 [506982A5] [48EEB420]
07 69,1 [F9C6E288] [DF1E56B3]
Any questions -> support@pro-jazz.com. По всем вопросам пишите -> support@pro-jazz.com
20:46
179
Нет комментариев. Ваш будет первым!