Вы используете незарегистрированную версию компонента "Вкладки"!

Поиск

(Avant-Garde Jazz) Sylvain Kassap (Didier Petit, Helene Labarriere, Edward Perraud) - Boat - 2005, FLAC (image+.cue), lossless

Треклист:
Sylvain Kassap / Boat
Жанр: Avant-Garde Jazz
Страна-производитель диска: France
Год издания: 2005
Издатель (лейбл): FREMEAUX & ASSOCIES
Номер по каталогу: FA 475
Аудиокодек: FLAC (*.flac)
Тип рипа: image+.cue
Битрейт аудио: lossless
Продолжительность: 49:06
Источник (релизер): cd
Наличие сканов в содержимом раздачи: нет
Треклист:
1 Children 02:52
2 Madrugada 04:35
3 Datal 04:53
4 Cretes 04:48
5 Seule cecile sait 05:34
6 Trogldytes et pokyglottes 08:35
7 Anish kapoor 06:01
8 Manes 07:04
9 Mademoiselle pogany 04:25
 
Лог создания рипа
Exact Audio Copy V1.0 beta 2 from 29. April 2011
EAC extraction logfile from 4. June 2012, 8:46
Sylvain Kassap / Boat
Used drive : Optiarc DVD RW AD-7170A Adapter: 0 ID: 0
Read mode : Secure
Utilize accurate stream : Yes
Defeat audio cache : Yes
Make use of C2 pointers : No
Read offset correction : 48
Overread into Lead-In and Lead-Out : No
Fill up missing offset samples with silence : Yes
Delete leading and trailing silent blocks : No
Null samples used in CRC calculations : Yes
Used interface : Native Win32 interface for Win NT & 2000
Used output format : User Defined Encoder
Selected bitrate : 320 kBit/s
Quality : High
Add ID3 tag : No
Command line compressor : C:\Program Files\Exact Audio Copy\Flac\flac.exe
Additional command line options : -V -8 -T "Date=%year%" -T "Genre=%genre%" %source%
TOC of the extracted CD
Track | Start | Length | Start sector | End sector
---------------------------------------------------------
1 | 0:00.00 | 2:52.44 | 0 | 12943
2 | 2:52.44 | 4:38.70 | 12944 | 33863
3 | 7:31.39 | 4:57.25 | 33864 | 56163
4 | 12:28.64 | 4:48.31 | 56164 | 77794
5 | 17:17.20 | 5:34.19 | 77795 | 102863
6 | 22:51.39 | 8:40.69 | 102864 | 141932
7 | 31:32.33 | 6:01.50 | 141933 | 169057
8 | 37:34.08 | 7:07.64 | 169058 | 201146
9 | 44:41.72 | 4:24.67 | 201147 | 221013
Range status and errors
Selected range
Filename K:\ЕАС\Sylvain Kassap - Boat.wav
Peak level 100.0 %
Extraction speed 4.6 X
Range quality 99.9 %
Test CRC FC7F0D83
Copy CRC FC7F0D83
Copy OK
No errors occurred
AccurateRip summary
Track 1 accurately ripped (confidence 1) [1D55A9D4] (AR v1)
Track 2 accurately ripped (confidence 1) [8F033AAF] (AR v1)
Track 3 accurately ripped (confidence 1) [C3F7BC85] (AR v1)
Track 4 accurately ripped (confidence 1) [28ED5D7F] (AR v1)
Track 5 accurately ripped (confidence 1) [F1742C84] (AR v1)
Track 6 accurately ripped (confidence 1) [8F5C0EBE] (AR v1)
Track 7 accurately ripped (confidence 1) [8EDEAF01] (AR v1)
Track 8 accurately ripped (confidence 1) [0A8EB141] (AR v1)
Track 9 accurately ripped (confidence 1) [F5C8B62C] (AR v1)
All tracks accurately ripped
End of status report
==== Log checksum 0A0D91BDFA90872281906220292D70B713C1D9E9B20EBE4C36E05E71F43D75F2 ====
 
Содержание индексной карты (.CUE)
REM GENRE Jazz
REM DATE 2005
REM DISCID 790B8209
REM COMMENT "ExactAudioCopy v1.0b2"
PERFORMER "Sylvain Kassap"
TITLE "Boat"
FILE "Sylvain Kassap - Boat.flac" WAVE
TRACK 01 AUDIO
TITLE "Children"
PERFORMER "Sylvain Kassap"
ISRC 000000000000
INDEX 01 00:00:00
TRACK 02 AUDIO
TITLE "Madrugada"
PERFORMER "Sylvain Kassap"
ISRC 000000000000
INDEX 01 02:52:44
TRACK 03 AUDIO
TITLE "Datal"
PERFORMER "Sylvain Kassap"
ISRC 000000000000
INDEX 00 07:27:73
INDEX 01 07:31:39
TRACK 04 AUDIO
TITLE "Cretes"
PERFORMER "Sylvain Kassap"
ISRC 000000000000
INDEX 00 12:24:67
INDEX 01 12:28:64
TRACK 05 AUDIO
TITLE "Seule cecile sait"
PERFORMER "Sylvain Kassap"
ISRC 000000000000
INDEX 01 17:17:20
TRACK 06 AUDIO
TITLE "Trogldytes et pokyglottes"
PERFORMER "Sylvain Kassap"
ISRC 000000000000
INDEX 01 22:51:39
TRACK 07 AUDIO
TITLE "Anish kapoor"
PERFORMER "Sylvain Kassap"
ISRC 000000000000
INDEX 00 31:27:10
INDEX 01 31:32:33
TRACK 08 AUDIO
TITLE "Manes"
PERFORMER "Sylvain Kassap"
ISRC 000000000000
INDEX 01 37:34:08
TRACK 09 AUDIO
TITLE "Mademoiselle pogany"
PERFORMER "Sylvain Kassap"
ISRC 000000000000
INDEX 00 44:38:25
INDEX 01 44:41:72
 
Состав
Sylvain Kassap clarinettes
Didier Petit violoncelle & voix
Helene Labarriere contrebasse
Edward Perraud batterie & percussions
Any questions -> support@pro-jazz.com. По всем вопросам пишите -> support@pro-jazz.com
01:25
125
Нет комментариев. Ваш будет первым!