Вы используете незарегистрированную версию компонента "Вкладки"!

Поиск

(Avant-garde Jazz) Steve Lehman Trio - Dialect Fluorescent - 2012, FLAC (tracks+.cue), lossless

(Avant-garde Jazz) Steve Lehman Trio - Dialect Fluorescent - 2012, FLAC (tracks+.cue), lossless
Треклист:
Steve Lehman Trio / Dialect Fluorescent
Жанр: Avant-garde Jazz
Страна-производитель диска: USA
Год издания: 2012
Издатель (лейбл): Pi Recordings
Номер по каталогу: Pi42
Страна: USA
Аудиокодек: FLAC (*.flac)
Тип рипа: tracks+.cue
Битрейт аудио: lossless
Продолжительность: 45:30
Источник (релизер): what.cd
Наличие сканов в содержимом раздачи: нет
Треклист:
1. Allocentric (Intro)
2. Allocentric
3. Moment's Notice
4. Foster Brothers
5. Jeannine
6. Alloy
7. Pure Imagination
8. Fumba Rebel
9. Mr. E
 
Лог создания рипа
Exact Audio Copy V1.0 beta 3 from 29. August 2011
EAC extraction logfile from 29. March 2012, 20:13
Steve Lehman Trio / Dialect Fluorescent
Used drive : TSSTcorpCD/DVDW SH-S182M Adapter: 1 ID: 1
Read mode : Secure
Utilize accurate stream : Yes
Defeat audio cache : Yes
Make use of C2 pointers : No
Read offset correction : 6
Overread into Lead-In and Lead-Out : No
Fill up missing offset samples with silence : Yes
Delete leading and trailing silent blocks : No
Null samples used in CRC calculations : Yes
Used interface : Installed external ASPI interface
Gap handling : Appended to previous track
Used output format : User Defined Encoder
Selected bitrate : 1024 kBit/s
Quality : High
Add ID3 tag : No
Command line compressor : C:\Program Files\eac-1.0beta3\FLAC\FLAC.EXE
Additional command line options : -8 -V -T "ARTIST=%artist%" -T "TITLE=%title%" -T "ALBUM=%albumtitle%" -T "DATE=%year%" -T "TRACKNUMBER=%tracknr%" -T "GENRE=%genre%" -T "PERFORMER=%albuminterpret%" -T "COMPOSER=%composer%" %haslyrics%--tag-from-file=LYRICS="%lyricsfile%"%haslyrics% -T "ALBUMARTIST=%albumartist%" -T "ALBUM ARTIST=%albumartist%" -T "DISCNUMBER=%cdnumber%" -T "TOTALDISCS=%totalcds%" -T "TOTALTRACKS=%numtracks%" -T "COMMENT=%comment%" %source% -o %dest%
TOC of the extracted CD
Track | Start | Length | Start sector | End sector
---------------------------------------------------------
1 | 0:00.00 | 3:10.39 | 0 | 14288
2 | 3:10.39 | 4:10.48 | 14289 | 33086
3 | 7:21.12 | 3:48.41 | 33087 | 50227
4 | 11:09.53 | 4:39.21 | 50228 | 71173
5 | 15:48.74 | 6:57.07 | 71174 | 102455
6 | 22:46.06 | 5:46.74 | 102456 | 128479
7 | 28:33.05 | 6:09.33 | 128480 | 156187
8 | 34:42.38 | 6:51.07 | 156188 | 187019
9 | 41:33.45 | 3:56.12 | 187020 | 204731
Track 1
Filename G:\01 - Allocentric (Into).wav
Pre-gap length 0:00:02.00
Peak level 46.4 %
Extraction speed 4.0 X
Track quality 100.0 %
Test CRC 3B7DCF23
Copy CRC 3B7DCF23
Track not present in AccurateRip database
Copy OK
Track 2
Filename G:\02 - Allocentric.wav
Peak level 98.8 %
Extraction speed 4.1 X
Track quality 99.9 %
Test CRC 73BDCA59
Copy CRC 73BDCA59
Track not present in AccurateRip database
Copy OK
Track 3
Filename G:\03 - Moment's Notice.wav
Pre-gap length 0:00:01.98
Peak level 98.8 %
Extraction speed 4.9 X
Track quality 100.0 %
Test CRC 2F206D01
Copy CRC 2F206D01
Track not present in AccurateRip database
Copy OK
Track 4
Filename G:\04 - Foster Brothers.wav
Pre-gap length 0:00:00.66
Peak level 98.8 %
Extraction speed 5.4 X
Track quality 100.0 %
Test CRC BCDB67D7
Copy CRC BCDB67D7
Track not present in AccurateRip database
Copy OK
Track 5
Filename G:\05 - Jeannine.wav
Pre-gap length 0:00:01.12
Peak level 98.8 %
Extraction speed 6.1 X
Track quality 100.0 %
Test CRC 5416A559
Copy CRC 5416A559
Track not present in AccurateRip database
Copy OK
Track 6
Filename G:\06 - Alloy.wav
Pre-gap length 0:00:01.98
Peak level 98.8 %
Extraction speed 6.5 X
Track quality 100.0 %
Test CRC 5164C57A
Copy CRC 5164C57A
Track not present in AccurateRip database
Copy OK
Track 7
Filename G:\07 - Pure Imagination.wav
Pre-gap length 0:00:01.73
Peak level 98.8 %
Extraction speed 6.9 X
Track quality 100.0 %
Test CRC DAD673B5
Copy CRC DAD673B5
Track not present in AccurateRip database
Copy OK
Track 8
Filename G:\08 - Fumba Rebel.wav
Pre-gap length 0:00:01.98
Peak level 98.8 %
Extraction speed 7.5 X
Track quality 100.0 %
Test CRC 54793847
Copy CRC 54793847
Track not present in AccurateRip database
Copy OK
Track 9
Filename G:\09 - Mr. E.wav
Pre-gap length 0:00:01.20
Peak level 98.8 %
Extraction speed 7.3 X
Track quality 100.0 %
Test CRC 441EA989
Copy CRC 441EA989
Track not present in AccurateRip database
Copy OK
None of the tracks are present in the AccurateRip database
No errors occurred
End of status report
---- CUETools DB Plugin V2.1.3
[CTDB TOCID: oePwGClP6R4K2rF4t01a.hAI5oY-] disk not present in database, Submit result: oePwGClP6R4K2rF4t01a.hAI5oY- has been uploaded
==== Log checksum 6AE0E199AC690C2358C58B742E955E690EC2FC85F75D8CB68DC7B3BA7ECFF5B4 ====
 
Содержание индексной карты (.CUE)
REM GENRE "Pi Recordings 42"
REM DATE 2012
REM DISCID 770AA909
REM COMMENT "ExactAudioCopy v1.0b3"
PERFORMER "Steve Lehman Trio"
TITLE "Dialect Fluorescent"
FILE "01 - Allocentric (Intro).wav" WAVE
TRACK 01 AUDIO
TITLE "Allocentric (Intro)"
PERFORMER "Steve Lehman Trio"
INDEX 01 00:00:00
FILE "02 - Allocentric.wav" WAVE
TRACK 02 AUDIO
TITLE "Allocentric"
PERFORMER "Steve Lehman Trio"
INDEX 01 00:00:00
TRACK 03 AUDIO
TITLE "Moment's Notice"
PERFORMER "Steve Lehman Trio"
INDEX 00 04:08:49
FILE "03 - Moment's Notice.wav" WAVE
INDEX 01 00:00:00
TRACK 04 AUDIO
TITLE "Foster Brothers"
PERFORMER "Steve Lehman Trio"
INDEX 00 03:47:66
FILE "04 - Foster Brothers.wav" WAVE
INDEX 01 00:00:00
TRACK 05 AUDIO
TITLE "Jeannine"
PERFORMER "Steve Lehman Trio"
INDEX 00 04:38:12
FILE "05 - Jeannine.wav" WAVE
INDEX 01 00:00:00
TRACK 06 AUDIO
TITLE "Alloy"
PERFORMER "Steve Lehman Trio"
INDEX 00 06:55:08
FILE "06 - Alloy.wav" WAVE
INDEX 01 00:00:00
TRACK 07 AUDIO
TITLE "Pure Imagination"
PERFORMER "Steve Lehman Trio"
INDEX 00 05:45:19
FILE "07 - Pure Imagination.wav" WAVE
INDEX 01 00:00:00
TRACK 08 AUDIO
TITLE "Fumba Rebel"
PERFORMER "Steve Lehman Trio"
INDEX 00 06:07:34
FILE "08 - Fumba Rebel.wav" WAVE
INDEX 01 00:00:00
TRACK 09 AUDIO
TITLE "Mr. E"
PERFORMER "Steve Lehman Trio"
INDEX 00 06:49:67
FILE "09 - Mr. E.wav" WAVE
INDEX 01 00:00:00
 
Состав
Steve Lehman: alto saxophone
Matt Brewer: bass
Damion Reid: drums
Any questions -> support@pro-jazz.com. По всем вопросам пишите -> support@pro-jazz.com
23:28
140
Нет комментариев. Ваш будет первым!