Вы используете незарегистрированную версию компонента "Вкладки"!

Поиск

(Avant-Garde Jazz, Spoken Word, Spiritual Jazz, Drone, Constellation) [CD] Matana Roberts - "Coin Coin Chapter Three: River Run Thee" - 2015, FLAC (tracks+.cue), lossless

Треклист:
Matana Roberts
"Coin Coin Chapter Three: River Run Thee"~-~-~-~-~-~-~-~-~-~-~-~-~-~-~-~-~-~-~-~-~-~-~-~-~-~-~-~-~-~-~-~-~-~-~-~-~-~-~-~-~-~-~-~-~-~-~-Жанр: Avant-Garde Jazz, Experimental, Spoken Word, Spiritual Jazz, Drone • Страна исполнителя: USA
Носитель: CD • Год издания: 2015 • Label: ☛ Constellation | CST110 | Canada
Аудиокодек: FLAC (*.flac) • Тип рипа: tracks+.cue • Битрейт аудио: lossless
Источник | релизер: whatcd | sheburon • Наличие сканов в содержимом раздачи: нет Tracklist:
(01) All Is Written • (02) The Good Book Says • (03) Clothed to the Land, Worn by the Sea
(04) Dreamer of Dreams • (05) Always Say Your Name • (06) Nema, Nema, Nema
(07) A Single Man o' War • (08) As Years Roll By • (09) This Land Is Yours
(10) Come Away • (11) With Me Seek • (12) J. P.
~-~-~-~-~-~-~-~-~-~-~-~-~-~-~-~-~-~-~-~-~-~-~-~-~-~-
Продолжительность: 00:45:36
 
~-
 
log
Exact Audio Copy V1.0 beta 4 from 7. December 2014
EAC extraction logfile from 8. February 2015, 22:23
Matana Roberts / COIN COIN Chapter Three, River Run Thee
Used drive : HL-DT-STBD-RE WH16NS40 Adapter: 1 ID: 0
Read mode : Secure
Utilize accurate stream : Yes
Defeat audio cache : Yes
Make use of C2 pointers : No
Read offset correction : 6
Overread into Lead-In and Lead-Out : No
Fill up missing offset samples with silence : Yes
Delete leading and trailing silent blocks : No
Null samples used in CRC calculations : Yes
Used interface : Native Win32 interface for Win NT & 2000
Gap handling : Appended to previous track
Used output format : User Defined Encoder
Selected bitrate : 1024 kBit/s
Quality : High
Add ID3 tag : No
Command line compressor : Z:\Music\EXEs\flac.exe
Additional command line options : -8 -V -T "ARTIST=%artist%" -T "TITLE=%title%" -T "ALBUM=%albumtitle%" -T "DATE=%year%" -T "TRACKNUMBER=%tracknr%" -T "GENRE=%genre%" -T "PERFORMER=%albuminterpret%" -T "COMPOSER=%composer%" %haslyrics%--tag-from-file=LYRICS="%lyricsfile%"%haslyrics% -T "ALBUMARTIST=%albumartist%" -T "DISCNUMBER=%cdnumber%" -T "TOTALDISCS=%totalcds%" -T "TOTALTRACKS=%numtracks%" -T "COMMENT=%comment%" %source% -o %dest%
TOC of the extracted CD
Track | Start | Length | Start sector | End sector
---------------------------------------------------------
1 | 0:00.00 | 10:05.39 | 0 | 45413
2 | 10:05.39 | 2:39.22 | 45414 | 57360
3 | 12:44.61 | 3:24.06 | 57361 | 72666
4 | 16:08.67 | 4:32.40 | 72667 | 93106
5 | 20:41.32 | 1:52.56 | 93107 | 101562
6 | 22:34.13 | 4:19.72 | 101563 | 121059
7 | 26:54.10 | 2:05.25 | 121060 | 130459
8 | 28:59.35 | 4:05.18 | 130460 | 148852
9 | 33:04.53 | 3:44.02 | 148853 | 165654
10 | 36:48.55 | 5:25.69 | 165655 | 190098
11 | 42:14.49 | 0:57.28 | 190099 | 194401
12 | 43:12.02 | 2:23.32 | 194402 | 205158
Track 1
Filename Z:\Music\EAC\Matana Roberts - COIN COIN Chapter Three, River Run Thee [FLAC]\01 - All Is Written.wav
Pre-gap length 0:00:02.00
Peak level 77.2 %
Extraction speed 3.6 X
Track quality 99.9 %
Test CRC C2430C14
Copy CRC C2430C14
Track not present in AccurateRip database
Copy OK
Track 2
Filename Z:\Music\EAC\Matana Roberts - COIN COIN Chapter Three, River Run Thee [FLAC]\02 - The Good Book Says.wav
Peak level 95.4 %
Extraction speed 5.1 X
Track quality 100.0 %
Test CRC DF57B01C
Copy CRC DF57B01C
Track not present in AccurateRip database
Copy OK
Track 3
Filename Z:\Music\EAC\Matana Roberts - COIN COIN Chapter Three, River Run Thee [FLAC]\03 - Clothed to the Land, Worn by the Sea.wav
Peak level 94.4 %
Extraction speed 4.6 X
Track quality 100.0 %
Test CRC 1F2F7A67
Copy CRC 1F2F7A67
Track not present in AccurateRip database
Copy OK
Track 4
Filename Z:\Music\EAC\Matana Roberts - COIN COIN Chapter Three, River Run Thee [FLAC]\04 - Dreamer of Dreams.wav
Peak level 95.4 %
Extraction speed 5.4 X
Track quality 100.0 %
Test CRC 4D9B0E5E
Copy CRC 4D9B0E5E
Track not present in AccurateRip database
Copy OK
Track 5
Filename Z:\Music\EAC\Matana Roberts - COIN COIN Chapter Three, River Run Thee [FLAC]\05 - Always Say Your Name.wav
Peak level 95.5 %
Extraction speed 3.7 X
Track quality 100.0 %
Test CRC 170FF0EC
Copy CRC 170FF0EC
Track not present in AccurateRip database
Copy OK
Track 6
Filename Z:\Music\EAC\Matana Roberts - COIN COIN Chapter Three, River Run Thee [FLAC]\06 - Nema, Nema, Nema.wav
Peak level 95.5 %
Extraction speed 2.1 X
Track quality 99.9 %
Test CRC 681756AF
Copy CRC 681756AF
Track not present in AccurateRip database
Copy OK
Track 7
Filename Z:\Music\EAC\Matana Roberts - COIN COIN Chapter Three, River Run Thee [FLAC]\07 - A Single Man O' War.wav
Peak level 95.5 %
Extraction speed 1.5 X
Track quality 100.0 %
Test CRC 2294ACA9
Copy CRC 2294ACA9
Track not present in AccurateRip database
Copy OK
Track 8
Filename Z:\Music\EAC\Matana Roberts - COIN COIN Chapter Three, River Run Thee [FLAC]\08 - As Years Roll By.wav
Peak level 82.3 %
Extraction speed 1.7 X
Track quality 100.0 %
Test CRC DA44CCCE
Copy CRC DA44CCCE
Track not present in AccurateRip database
Copy OK
Track 9
Filename Z:\Music\EAC\Matana Roberts - COIN COIN Chapter Three, River Run Thee [FLAC]\09 - This Land Is Yours.wav
Peak level 87.5 %
Extraction speed 1.8 X
Track quality 100.0 %
Test CRC C86741BA
Copy CRC C86741BA
Track not present in AccurateRip database
Copy OK
Track 10
Filename Z:\Music\EAC\Matana Roberts - COIN COIN Chapter Three, River Run Thee [FLAC]\10 - Come Away.wav
Peak level 95.3 %
Extraction speed 1.9 X
Track quality 100.0 %
Test CRC BAB2A6E3
Copy CRC BAB2A6E3
Track not present in AccurateRip database
Copy OK
Track 11
Filename Z:\Music\EAC\Matana Roberts - COIN COIN Chapter Three, River Run Thee [FLAC]\11 - With Me Seek.wav
Peak level 65.0 %
Extraction speed 1.3 X
Track quality 100.0 %
Test CRC E71D84D9
Copy CRC E71D84D9
Track not present in AccurateRip database
Copy OK
Track 12
Filename Z:\Music\EAC\Matana Roberts - COIN COIN Chapter Three, River Run Thee [FLAC]\12 - J.P..wav
Peak level 95.5 %
Extraction speed 1.5 X
Track quality 99.9 %
Test CRC 134E118B
Copy CRC 134E118B
Track not present in AccurateRip database
Copy OK
None of the tracks are present in the AccurateRip database
No errors occurred
End of status report
==== Log checksum C29734E993A4C558D9F45C3789E9609D027C9AEF497D745BFC90033A0F97B1FC ====
 
cue
REM GENRE Experimental
REM DATE 2015
REM DISCID A70AAF0C
REM COMMENT "ExactAudioCopy v1.0b4"
CATALOG 0666561011024
PERFORMER "Matana Roberts"
TITLE "COIN COIN Chapter Three, River Run Thee"
FILE "01. All Is Written.wav" WAVE
TRACK 01 AUDIO
TITLE "All Is Written"
PERFORMER "Matana Roberts"
ISRC CACQ21511001
INDEX 01 00:00:00
FILE "02. The Good Book Says.wav" WAVE
TRACK 02 AUDIO
TITLE "The Good Book Says"
PERFORMER "Matana Roberts"
ISRC CACQ21511002
INDEX 01 00:00:00
FILE "03. Clothed to the Land, Worn by the Sea.wav" WAVE
TRACK 03 AUDIO
TITLE "Clothed to the Land, Worn by the Sea"
PERFORMER "Matana Roberts"
ISRC CACQ21511003
INDEX 01 00:00:00
FILE "04. Dreamer of Dreams.wav" WAVE
TRACK 04 AUDIO
TITLE "Dreamer of Dreams"
PERFORMER "Matana Roberts"
ISRC CACQ21511004
INDEX 01 00:00:00
FILE "05. Always Say Your Name.wav" WAVE
TRACK 05 AUDIO
TITLE "Always Say Your Name"
PERFORMER "Matana Roberts"
ISRC CACQ21511005
INDEX 01 00:00:00
FILE "06. Nema, Nema, Nema.wav" WAVE
TRACK 06 AUDIO
TITLE "Nema, Nema, Nema"
PERFORMER "Matana Roberts"
ISRC CACQ21511006
INDEX 01 00:00:00
FILE "07. A Single Man O' War.wav" WAVE
TRACK 07 AUDIO
TITLE "A Single Man O' War"
PERFORMER "Matana Roberts"
ISRC CACQ21511007
INDEX 01 00:00:00
FILE "08. As Years Roll By.wav" WAVE
TRACK 08 AUDIO
TITLE "As Years Roll By"
PERFORMER "Matana Roberts"
ISRC CACQ21511008
INDEX 01 00:00:00
FILE "09. This Land Is Yours.wav" WAVE
TRACK 09 AUDIO
TITLE "This Land Is Yours"
PERFORMER "Matana Roberts"
ISRC CACQ21511009
INDEX 01 00:00:00
FILE "10. Come Away.wav" WAVE
TRACK 10 AUDIO
TITLE "Come Away"
PERFORMER "Matana Roberts"
ISRC CACQ21511010
INDEX 01 00:00:00
FILE "11. With Me Seek.wav" WAVE
TRACK 11 AUDIO
TITLE "With Me Seek"
PERFORMER "Matana Roberts"
ISRC CACQ21511011
INDEX 01 00:00:00
FILE "12. J.P..wav" WAVE
TRACK 12 AUDIO
TITLE "J.P."
PERFORMER "Matana Roberts"
ISRC CACQ21511012
INDEX 01 00:00:00

По всем вопросам пишите личное сообщение пользователю M0p94ok.
09:57
237
Нет комментариев. Ваш будет первым!