Вы используете незарегистрированную версию компонента "Вкладки"!

Поиск

(Avant-Garde Jazz, Spiritual Jazz, CD) Matana Roberts - Coin Coin Chapter Two: Mississippi Moonchile - 2012, FLAC (tracks+.cue), lossless

(Avant-Garde Jazz, Spiritual Jazz, CD) Matana Roberts - Coin Coin Chapter Two: Mississippi Moonchile - 2012, FLAC (tracks+.cue), lossless
Треклист:
Matana Roberts
"Coin Coin Chapter Two: Mississippi Moonchile"
Окинул взглядом РуТрекерОРГ и увидел - нет такой раздачи, шоб и с логом, и с куем (как любит наше начальство - модераторы). Непорядок и не "ОРГ" - подумал я, и решил выложить.
Её мы тут любим и уважаем. И да будет, как можно больше Матан Робертс, хороших и разных! Всем приятного прослушивания (если кто-то - туда, вскорости пойдёт)! А остальных, с наступающим праздником и не кашлять!

Жанр: Avant-Garde Jazz, Spiritual Jazz, Jazz Poetry, Spoken Word
Носитель: CD
Страна-производитель диска: USA
Released: 2013
Label: Constellation (Montréal, Canada)
Номер по каталогу: CST098-2
Страна исполнителя: USA
Аудиокодек: FLAC (*.flac)
Тип рипа: (tracks+.cue)
Битрейт аудио: lossless
Продолжительность: 00:48:43
Наличие сканов в содержимом раздачи: нет
Источник / релизер: whatcd / verbatim32
  • Треклист:
    01. Invocation
    02. Humility Draws Down Blue
    03. All Nations
    04. Twelve Sighed
    05. Spares Of The World
    06. Secret Covens
    07. River Ruby Dues
    08. Confessor Haste
    09. Amma Jerusalem School
    10. For This Is
    11. Responsory
    12. The Labor Of Their Lips
    13. Was The Sacred Day
    14. Lesson
    15. Woman Red Racked
    16. Thanks Be You
    17. Humility Draws Down New
    18. Benediction


 
спойлер
 
l o g
Exact Audio Copy V1.0 beta 3 from 29. August 2011
EAC extraction logfile from 20. January 2014, 11:43
Matana Roberts / Coin Coin Chapter Two: Mississippi Moonchile
Used drive : HL-DT-STBD-RE BH16NS40 Adapter: 0 ID: 0
Read mode : Secure
Utilize accurate stream : Yes
Defeat audio cache : Yes
Make use of C2 pointers : No
Read offset correction : 6
Overread into Lead-In and Lead-Out : No
Fill up missing offset samples with silence : Yes
Delete leading and trailing silent blocks : No
Null samples used in CRC calculations : Yes
Used interface : Native Win32 interface for Win NT & 2000
Gap handling : Appended to previous track
Used output format : User Defined Encoder
Selected bitrate : 1024 kBit/s
Quality : High
Add ID3 tag : No
Command line compressor : B:\Programmes\Exact Audio Copy\FLAC\FLAC.EXE
Additional command line options : -8 -V -T "ARTIST=%artist%" -T "TITLE=%title%" -T "ALBUM=%albumtitle%" -T "DATE=%year%" -T "TRACKNUMBER=%tracknr%" -T "GENRE=%genre%" -T "PERFORMER=%albuminterpret%" -T "COMPOSER=%composer%" %haslyrics%--tag-from-file=LYRICS="%lyricsfile%"%haslyrics% -T "ALBUMARTIST=%albumartist%" -T "DISCNUMBER=%cdnumber%" -T "TOTALDISCS=%totalcds%" -T "TOTALTRACKS=%numtracks%" -T "COMMENT=%comment%" %source% -o %dest%
TOC of the extracted CD
Track | Start | Length | Start sector | End sector
---------------------------------------------------------
1 | 0:00.00 | 4:16.70 | 0 | 19269
2 | 4:16.70 | 1:35.33 | 19270 | 26427
3 | 5:52.28 | 0:07.66 | 26428 | 27018
4 | 6:00.19 | 2:15.07 | 27019 | 37150
5 | 8:15.26 | 2:28.70 | 37151 | 48320
6 | 10:44.21 | 1:44.60 | 48321 | 56180
7 | 12:29.06 | 4:20.64 | 56181 | 75744
8 | 16:49.70 | 1:25.31 | 75745 | 82150
9 | 18:15.26 | 4:10.67 | 82151 | 100967
10 | 22:26.18 | 1:03.49 | 100968 | 105741
11 | 23:29.67 | 3:49.74 | 105742 | 122990
12 | 27:19.66 | 1:49.32 | 122991 | 131197
13 | 29:09.23 | 4:25.23 | 131198 | 151095
14 | 33:34.46 | 3:30.29 | 151096 | 166874
15 | 37:05.00 | 4:27.47 | 166875 | 186946
16 | 41:32.47 | 4:24.45 | 186947 | 206791
17 | 45:57.17 | 0:47.27 | 206792 | 210343
18 | 46:44.44 | 1:58.72 | 210344 | 219265
Track 1
Filename A:\Music\What.cd\Ripped\01.Invocation.wav
Pre-gap length 0:00:02.00
Peak level 98.2 %
Extraction speed 1.7 X
Track quality 99.9 %
Test CRC 8BFBE923
Copy CRC 8BFBE923
Accurately ripped (confidence 2) [B65C333F] (AR v2)
Copy OK
Track 2
Filename A:\Music\What.cd\Ripped\02.Humility Draws Down Blue.wav
Peak level 98.3 %
Extraction speed 0.9 X
Track quality 100.0 %
Test CRC 20464F13
Copy CRC 20464F13
Accurately ripped (confidence 2) [9747746B] (AR v2)
Copy OK
Track 3
Filename A:\Music\What.cd\Ripped\03.All Nations.wav
Peak level 98.2 %
Extraction speed 0.2 X
Track quality 100.0 %
Test CRC 1AAE1448
Copy CRC 1AAE1448
Accurately ripped (confidence 2) [880FA1BB] (AR v2)
Copy OK
Track 4
Filename A:\Music\What.cd\Ripped\04.Twelve Sighed.wav
Peak level 98.2 %
Extraction speed 0.8 X
Track quality 99.9 %
Test CRC 8BE0F5E7
Copy CRC 8BE0F5E7
Accurately ripped (confidence 2) [3FBB912A] (AR v2)
Copy OK
Track 5
Filename A:\Music\What.cd\Ripped\05.Spares Of The World.wav
Peak level 98.2 %
Extraction speed 1.1 X
Track quality 100.0 %
Test CRC B74593D6
Copy CRC B74593D6
Accurately ripped (confidence 2) [C9AE45F3] (AR v2)
Copy OK
Track 6
Filename A:\Music\What.cd\Ripped\06.Secret Covens.wav
Peak level 98.2 %
Extraction speed 1.1 X
Track quality 100.0 %
Test CRC 75F6406B
Copy CRC 75F6406B
Accurately ripped (confidence 2) [3AAA114A] (AR v2)
Copy OK
Track 7
Filename A:\Music\What.cd\Ripped\07.River Ruby Dues.wav
Peak level 98.3 %
Extraction speed 1.4 X
Track quality 100.0 %
Test CRC F006894A
Copy CRC F006894A
Accurately ripped (confidence 2) [8648E4C1] (AR v2)
Copy OK
Track 8
Filename A:\Music\What.cd\Ripped\08.Confessor Haste.wav
Peak level 98.2 %
Extraction speed 1.1 X
Track quality 100.0 %
Test CRC E07C466D
Copy CRC E07C466D
Accurately ripped (confidence 2) [F8DA7FC1] (AR v2)
Copy OK
Track 9
Filename A:\Music\What.cd\Ripped\09.Amma Jerusalem School.wav
Peak level 98.2 %
Extraction speed 1.5 X
Track quality 100.0 %
Test CRC 3BF261E2
Copy CRC 3BF261E2
Accurately ripped (confidence 2) [1D7EFE8D] (AR v2)
Copy OK
Track 10
Filename A:\Music\What.cd\Ripped\10.For This Is.wav
Peak level 98.2 %
Extraction speed 1.1 X
Track quality 100.0 %
Test CRC DD3B933D
Copy CRC DD3B933D
Accurately ripped (confidence 2) [4F1E6B54] (AR v2)
Copy OK
Track 11
Filename A:\Music\What.cd\Ripped\11.Responsory.wav
Peak level 98.3 %
Extraction speed 1.6 X
Track quality 100.0 %
Test CRC FBC50E5D
Copy CRC FBC50E5D
Accurately ripped (confidence 2) [E30A75B3] (AR v2)
Copy OK
Track 12
Filename A:\Music\What.cd\Ripped\12.The Labor Of Their Lips.wav
Peak level 98.2 %
Extraction speed 1.4 X
Track quality 100.0 %
Test CRC FD60B2BE
Copy CRC FD60B2BE
Accurately ripped (confidence 2) [C466C7CB] (AR v2)
Copy OK
Track 13
Filename A:\Music\What.cd\Ripped\13.Was The Sacred Day.wav
Peak level 98.3 %
Extraction speed 1.7 X
Track quality 100.0 %
Test CRC 4F6D3DDB
Copy CRC 4F6D3DDB
Accurately ripped (confidence 2) [75865751] (AR v2)
Copy OK
Track 14
Filename A:\Music\What.cd\Ripped\14.Lesson.wav
Peak level 98.2 %
Extraction speed 1.8 X
Track quality 100.0 %
Test CRC 0CCA639D
Copy CRC 0CCA639D
Accurately ripped (confidence 2) [69F339A5] (AR v2)
Copy OK
Track 15
Filename A:\Music\What.cd\Ripped\15.Woman Red Racked.wav
Peak level 98.2 %
Extraction speed 1.9 X
Track quality 100.0 %
Test CRC 91C8DC37
Copy CRC 91C8DC37
Accurately ripped (confidence 2) [4339CF74] (AR v2)
Copy OK
Track 16
Filename A:\Music\What.cd\Ripped\16.Thanks Be You.wav
Peak level 98.2 %
Extraction speed 1.7 X
Track quality 99.9 %
Test CRC 54D259EE
Copy CRC 54D259EE
Accurately ripped (confidence 2) [7ECD39E8] (AR v2)
Copy OK
Track 17
Filename A:\Music\What.cd\Ripped\17.Humility Draws Down New.wav
Peak level 98.2 %
Extraction speed 1.2 X
Track quality 100.0 %
Test CRC C8F7C3EA
Copy CRC C8F7C3EA
Accurately ripped (confidence 2) [119F6BF2] (AR v2)
Copy OK
Track 18
Filename A:\Music\What.cd\Ripped\18.Benediction.wav
Peak level 97.2 %
Extraction speed 1.8 X
Track quality 100.0 %
Test CRC 26514189
Copy CRC 26514189
Accurately ripped (confidence 2) [89BF6A40] (AR v2)
Copy OK
All tracks accurately ripped
No errors occurred
End of status report
---- CUETools DB Plugin V2.1.3
[CTDB TOCID: 6GrPi2gENM2kSg0ZzvxrBQ9BJRc-] found, Submit result: 6GrPi2gENM2kSg0ZzvxrBQ9BJRc- has been confirmed
[a95fc825] (2/2) Accurately ripped
==== Log checksum EBD314185E5146A97178AA15DECF1AD43914CDE59D24A1786CAA83167BE4CE38 ====
 
c u e
REM GENRE Jazz
REM DATE 2013
REM DISCID EE0B6B12
REM COMMENT "ExactAudioCopy v1.0b3"
PERFORMER "Matana Roberts"
TITLE "Coin Coin Chapter Two: Mississippi Moonchile"
FILE "01.Invocation.wav" WAVE
TRACK 01 AUDIO
TITLE "Invocation"
PERFORMER "Matana Roberts"
ISRC CACQ21309801
INDEX 01 00:00:00
FILE "02.Humility Draws Down Blue.wav" WAVE
TRACK 02 AUDIO
TITLE "Humility Draws Down Blue"
PERFORMER "Matana Roberts"
ISRC CACQ21309802
INDEX 01 00:00:00
FILE "03.All Nations.wav" WAVE
TRACK 03 AUDIO
TITLE "All Nations"
PERFORMER "Matana Roberts"
ISRC CACQ21309803
INDEX 01 00:00:00
FILE "04.Twelve Sighed.wav" WAVE
TRACK 04 AUDIO
TITLE "Twelve Sighed"
PERFORMER "Matana Roberts"
ISRC CACQ21309804
INDEX 01 00:00:00
FILE "05.Spares Of The World.wav" WAVE
TRACK 05 AUDIO
TITLE "Spares Of The World"
PERFORMER "Matana Roberts"
ISRC CACQ21309805
INDEX 01 00:00:00
FILE "06.Secret Covens.wav" WAVE
TRACK 06 AUDIO
TITLE "Secret Covens"
PERFORMER "Matana Roberts"
ISRC CACQ21309806
INDEX 01 00:00:00
FILE "07.River Ruby Dues.wav" WAVE
TRACK 07 AUDIO
TITLE "River Ruby Dues"
PERFORMER "Matana Roberts"
ISRC CACQ21309807
INDEX 01 00:00:00
FILE "08.Confessor Haste.wav" WAVE
TRACK 08 AUDIO
TITLE "Confessor Haste"
PERFORMER "Matana Roberts"
ISRC CACQ21309808
INDEX 01 00:00:00
FILE "09.Amma Jerusalem School.wav" WAVE
TRACK 09 AUDIO
TITLE "Amma Jerusalem School"
PERFORMER "Matana Roberts"
ISRC CACQ21309808
INDEX 01 00:00:00
FILE "10.For This Is.wav" WAVE
TRACK 10 AUDIO
TITLE "For This Is"
PERFORMER "Matana Roberts"
ISRC CACQ21309810
INDEX 01 00:00:00
FILE "11.Responsory.wav" WAVE
TRACK 11 AUDIO
TITLE "Responsory"
PERFORMER "Matana Roberts"
ISRC CACQ21309811
INDEX 01 00:00:00
FILE "12.The Labor Of Their Lips.wav" WAVE
TRACK 12 AUDIO
TITLE "The Labor Of Their Lips"
PERFORMER "Matana Roberts"
ISRC CACQ21309812
INDEX 01 00:00:00
FILE "13.Was The Sacred Day.wav" WAVE
TRACK 13 AUDIO
TITLE "Was The Sacred Day"
PERFORMER "Matana Roberts"
ISRC CACQ21309812
INDEX 01 00:00:00
FILE "14.Lesson.wav" WAVE
TRACK 14 AUDIO
TITLE "Lesson"
PERFORMER "Matana Roberts"
ISRC CACQ21309814
INDEX 01 00:00:00
FILE "15.Woman Red Racked.wav" WAVE
TRACK 15 AUDIO
TITLE "Woman Red Racked"
PERFORMER "Matana Roberts"
ISRC CACQ21309815
INDEX 01 00:00:00
FILE "16.Thanks Be You.wav" WAVE
TRACK 16 AUDIO
TITLE "Thanks Be You"
PERFORMER "Matana Roberts"
ISRC CACQ21309816
INDEX 01 00:00:00
FILE "17.Humility Draws Down New.wav" WAVE
TRACK 17 AUDIO
TITLE "Humility Draws Down New"
PERFORMER "Matana Roberts"
ISRC CACQ21309817
INDEX 01 00:00:00
FILE "18.Benediction.wav" WAVE
TRACK 18 AUDIO
TITLE "Benediction"
PERFORMER "Matana Roberts"
ISRC CACQ21309818
INDEX 01 00:00:00

По всем вопросам пишите личное сообщение пользователю M0p94ok.
08:52
151
Нет комментариев. Ваш будет первым!