Вы используете незарегистрированную версию компонента "Вкладки"!

Поиск

(Avant-Garde Jazz, Saxophone Jazz) John Coltrane - Kulu Se Mama - (1965) - 2009, FLAC (tracks+.cue), lossless

Треклист:
John Coltrane / Kulu Se Mama
Жанр: Avant-Garde Jazz, Saxophone Jazz
Страна-производитель диска:EU
Год издания диска: (1965) - 2009
Издатель (лейбл): Impulse!
Номер по каталогу: 0602517920347
Страна: USA Hamlet, NC
Аудиокодек: FLAC (*.flac)
Тип рипа: tracks+.cue
Битрейт аудио: lossless
Продолжительность: 00:34:05
Источник (релизер): ruskaval
Наличие сканов в содержимом раздачи: да
Треклист:
01. Kulu Se Mama (Juno Se Mama) [18:49]
02. Vigil [09:51]
03. Welcome [05:23]
 
Лог создания рипа
Exact Audio Copy V0.99 prebeta 5 from 4. May 2009
EAC extraction logfile from 3. February 2010, 18:06
John Coltrane / Kulu Se Mama
Used drive : TSSTcorpCD/DVDW TS-H552L Adapter: 3 ID: 0
Read mode : Secure
Utilize accurate stream : Yes
Defeat audio cache : Yes
Make use of C2 pointers : No
Read offset correction : 6
Overread into Lead-In and Lead-Out : No
Fill up missing offset samples with silence : Yes
Delete leading and trailing silent blocks : No
Null samples used in CRC calculations : Yes
Used interface : Native Win32 interface for Win NT & 2000
Gap handling : Appended to previous track
Used output format : User Defined Encoder
Selected bitrate : 1024 kBit/s
Quality : High
Add ID3 tag : No
Command line compressor : C:\Program Files\FLAC\flac.exe
Additional command line options : -6 -V -T "ARTIST=%a" -T "TITLE=%t" -T "ALBUM=%g" -T "DATE=%y" -T "TRACKNUMBER=%n" -T "GENRE=%m" -T "COMMENT=EAC FLAC -6" %s
TOC of the extracted CD
Track | Start | Length | Start sector | End sector
---------------------------------------------------------
1 | 0:00.00 | 18:49.03 | 0 | 84677
2 | 18:49.03 | 9:51.64 | 84678 | 129066
3 | 28:40.67 | 5:23.74 | 129067 | 153365
Track 1
Filename C:\John Coltrane - Kulu Se Mama (1965) {2009 Verve Originals}\01 - Kulu Se Mama (Juno Se Mama).wav
Pre-gap length 0:00:02.00
Peak level 98.8 %
Track quality 99.9 %
Test CRC 870205FD
Copy CRC 870205FD
Accurately ripped (confidence 2) [2F0E3BD7]
Copy OK
Track 2
Filename C:\John Coltrane - Kulu Se Mama (1965) {2009 Verve Originals}\02 - Vigil.wav
Peak level 98.8 %
Track quality 100.0 %
Test CRC DD4EBD52
Copy CRC DD4EBD52
Accurately ripped (confidence 2) [EA5ED3B0]
Copy OK
Track 3
Filename C:\John Coltrane - Kulu Se Mama (1965) {2009 Verve Originals}\03 - Welcome.wav
Peak level 98.8 %
Track quality 100.0 %
Test CRC 71BEE16E
Copy CRC 71BEE16E
Accurately ripped (confidence 2) [C20A57FA]
Copy OK
All tracks accurately ripped
No errors occurred
End of status report
 
Содержание индексной карты (.CUE)
REM GENRE Jazz
REM DATE 1965
REM DISCID 1407FC03
REM COMMENT "ExactAudioCopy v0.99pb5"
PERFORMER "John Coltrane"
TITLE "Kulu Se Mama"
FILE "01 - Kulu Se Mama (Juno Se Mama).wav" WAVE
TRACK 01 AUDIO
TITLE "Kulu Se Mama (Juno Se Mama)"
PERFORMER "John Coltrane"
INDEX 01 00:00:00
FILE "02 - Vigil.wav" WAVE
TRACK 02 AUDIO
TITLE "Vigil"
PERFORMER "John Coltrane"
INDEX 01 00:00:00
FILE "03 - Welcome.wav" WAVE
TRACK 03 AUDIO
TITLE "Welcome"
PERFORMER "John Coltrane"
INDEX 01 00:00:00
 
Состав
John Coltrane (tenor saxophone, jingle bells, percussion); Frank Butler (vocals, drums, percussion); Juno Lewis (vocals, hand drums, conch shell, percussion); Pharoah Sanders (tenor saxophone, kalimba, percussion); Donald Rafael Garrett (bass clarinet, bass, percussion); McCoy Tyner (piano); Jimmy Garrison (bass); Elvin Jones (drums)
Any questions -> support@pro-jazz.com. По всем вопросам пишите -> support@pro-jazz.com
16:15
163
Нет комментариев. Ваш будет первым!