Вы используете незарегистрированную версию компонента "Вкладки"!

Поиск

(Avant-garde Jazz) Satoko Fujii Min-Yoh Ensemble - Fujin Raijin - 2007, FLAC (image+.cue), lossless

(Avant-garde Jazz) Satoko Fujii Min-Yoh Ensemble - Fujin Raijin - 2007, FLAC (image+.cue), lossless
Треклист:
Satoko Fujii Min-Yoh Ensemble - Fujin Raijin
Жанр: Avantgarde Jazz
Год выпуска диска: 2007
Аудио кодек: FLAC
Тип рипа: image+.cue
Битрейт аудио: lossless
Трэклист:
1.Itsuki No Komoriuta (8:14)
2.Champloo (9:54)
3.Shimanto (11:01)
4.Slowly And Slowly (9:04)
5.Fujin Raijin (3:26)
6.Kariboshi Kiriuta (8:38)
Доп. информация:
 
Line-up
Satoko Fujii: piano;
Natsuki Tamura: trumpet;
Curtis Hasselbring: trombone;
Andrea Parkins: accordion
Доп. информация:
http://www.allaboutjazz.com/php/article.php?id=25865
http://freejazz-stef.blogspot.com/2007/11/satoko-fujii-min-yoh-ensemble-fujin.html
Рип с оригинального диска из собственной коллекции, сканы прилагаются.
 
Отчёт EAC
Exact Audio Copy V0.99 prebeta 3 from 28. July 2007
Отчёт EAC об извлечении, выполненном 6. августа 2009, 20:27
Satoko Fujii / Fujin Raijin
Дисковод: _NEC DVD_RW ND-3540A Adapter: 3 ID: 1
Режим чтения : Достоверность
Использование точного потока : Да
Отключение кэша аудио : Да
Использование указателей C2 : Нет
Коррекция смещения при чтении : 48
Способность читать области Lead-in и Lead-out : Нет
Заполнение пропущенных сэмплов тишиной : Да
Удаление блоков с тишиной в начале и конце : Нет
При вычислениях CRC использовались нулевые сэмплы : Да
Интерфейс : Установленный внешний ASPI-интерфейс
Выходной формат : Пользовательский кодировщик
Выбранный битрейт : 768 kBit/s
Качество : Высокий
Добавление ID3-тэга : Нет
Утилита сжатия : D:\БЫВШИЙ G\Program Files\Exact Audio Copy\FLAC\FLAC.EXE
Дополнительные параметры : -6 -V -T "ARTIST=%a" -T "TITLE=%t" -T "ALBUM=%g" -T "DATE=%y" -T "TRACKNUMBER=%n" -T "GENRE=%m" -T "COMMENT=%e" %s -o %d
TOC извлечённого CD
Трек | Старт | Длительность | Начальный сектор | Конечный сектор
---------------------------------------------------------------------
1 | 0:00.00 | 8:14.24 | 0 | 37073
2 | 8:14.24 | 9:53.47 | 37074 | 81595
3 | 18:07.71 | 11:00.43 | 81596 | 131138
4 | 29:08.39 | 9:04.14 | 131139 | 171952
5 | 38:12.53 | 3:25.55 | 171953 | 187382
6 | 41:38.33 | 8:38.01 | 187383 | 226233
Характеристики диапазона извлечения и сообщения об ошибках
Выбранный диапазон
Имя файла G:\Satoko Fujii - Fujin Raijin\Satoko Fujii - Fujin Raijin.wav
Пиковый уровень 97.7 %
Качество диапазона 99.9 %
CRC копии ED8AE825
Копирование... OK
Ошибок не произошло
Конец отчёта
Any questions -> support@pro-jazz.com. По всем вопросам пишите -> support@pro-jazz.com
13:16
154
Нет комментариев. Ваш будет первым!