Вы используете незарегистрированную версию компонента "Вкладки"!

Поиск

(Avant-Garde / Jazz-Rock) Lucien Dubuis Trio & Marc Ribot - Ultime Cosmos - 2009, FLAC (tracks+.cue), lossless

Треклист:
Lucien Dubuis Trio & Marc Ribot - Ultime Cosmos
Жанр: Avant-Garde / Jazz-Rock
Год выпуска : 2009
Лейбл: Enja Records
Аудио кодек: FLAC
Тип рипа: tracks+.cue
Битрейт аудио: lossless
Продолжительность: 00:56:53
Рип: gerasim427724 - What CD


01. Ultime Cosmos (3:54)
02. Bal les masques! (8:28)
03. Echo noire (7:16)
04. Ayarashiki (6:43)
05. Future Rock 1 (1:29)
06. Djidjzd (4:35)
07. Space Invaders (5:07)
08. La danse des machines (6:57)
09. Future Rock 2 (1:55)
10. Insomnie (2:39)
11. Shit Love (3:10)
12. Do You Know The Way To My Home (4:40)

 
EAC
Exact Audio Copy V0.99 prebeta 5 from 4. May 2009
EAC extraction logfile from 21. April 2010, 9:58
Lucien Dubuis Trio & Marc Ribot / Ultime Cosmos
Used drive : Optiarc DVD RW AD-7200A Adapter: 1 ID: 1
Read mode : Secure
Utilize accurate stream : Yes
Defeat audio cache : Yes
Make use of C2 pointers : No
Read offset correction : 48
Overread into Lead-In and Lead-Out : No
Fill up missing offset samples with silence : Yes
Delete leading and trailing silent blocks : No
Null samples used in CRC calculations : Yes
Used interface : Installed external ASPI interface
Gap handling : Appended to previous track
Used output format : User Defined Encoder
Selected bitrate : 128 kBit/s
Quality : High
Add ID3 tag : No
Command line compressor : C:\Program Files\Exact Audio Copy\Flac\flac.exe
Additional command line options : -8 -V -T "ARTIST=%a" -T "TITLE=%t" -T "ALBUM=%g" -T "DATE=%y" -T "TRACKNUMBER=%n" -T "GENRE=%m" -T "COMMENT=EAC FLAC -8" %s
TOC of the extracted CD
Track | Start | Length | Start sector | End sector
---------------------------------------------------------
1 | 0:00.00 | 3:54.22 | 0 | 17571
2 | 3:54.22 | 8:27.48 | 17572 | 55644
3 | 12:21.70 | 7:16.07 | 55645 | 88351
4 | 19:38.02 | 6:42.64 | 88352 | 118565
5 | 26:20.66 | 1:29.11 | 118566 | 125251
6 | 27:50.02 | 4:35.04 | 125252 | 145880
7 | 32:25.06 | 5:07.33 | 145881 | 168938
8 | 37:32.39 | 6:57.26 | 168939 | 200239
9 | 44:29.65 | 1:55.02 | 200240 | 208866
10 | 46:24.67 | 2:38.62 | 208867 | 220778
11 | 49:03.54 | 3:10.12 | 220779 | 235040
12 | 52:13.66 | 4:39.59 | 235041 | 256024
Track 1
Filename I:\Work\Lucien Dubuis Trio & Marc Ribot - Ultime Cosmos\01. Lucien Dubuis Trio & Marc Ribot – Ultime Cosmos.wav
Pre-gap length 0:00:02.00
Peak level 96.6 %
Track quality 100.0 %
Test CRC 4D03C0BD
Copy CRC 4D03C0BD
Copy OK
Track 2
Filename I:\Work\Lucien Dubuis Trio & Marc Ribot - Ultime Cosmos\02. Lucien Dubuis Trio & Marc Ribot – Bal les masques!.wav
Pre-gap length 0:00:01.00
Peak level 96.6 %
Track quality 100.0 %
Test CRC B884DD38
Copy CRC B884DD38
Copy OK
Track 3
Filename I:\Work\Lucien Dubuis Trio & Marc Ribot - Ultime Cosmos\03. Lucien Dubuis Trio & Marc Ribot – Echo noire.wav
Pre-gap length 0:00:01.00
Peak level 96.6 %
Track quality 100.0 %
Test CRC BF85F835
Copy CRC BF85F835
Copy OK
Track 4
Filename I:\Work\Lucien Dubuis Trio & Marc Ribot - Ultime Cosmos\04. Lucien Dubuis Trio & Marc Ribot – Ayarashiki.wav
Pre-gap length 0:00:01.00
Peak level 96.6 %
Track quality 100.0 %
Test CRC 3D12EB56
Copy CRC 3D12EB56
Copy OK
Track 5
Filename I:\Work\Lucien Dubuis Trio & Marc Ribot - Ultime Cosmos\05. Lucien Dubuis Trio & Marc Ribot – Future Rock 1.wav
Pre-gap length 0:00:01.00
Peak level 96.6 %
Track quality 100.0 %
Test CRC 07721B4C
Copy CRC 07721B4C
Copy OK
Track 6
Filename I:\Work\Lucien Dubuis Trio & Marc Ribot - Ultime Cosmos\06. Lucien Dubuis Trio & Marc Ribot – Djidjzd.wav
Pre-gap length 0:00:01.00
Peak level 96.6 %
Track quality 100.0 %
Test CRC 3707FB83
Copy CRC 3707FB83
Copy OK
Track 7
Filename I:\Work\Lucien Dubuis Trio & Marc Ribot - Ultime Cosmos\07. Lucien Dubuis Trio & Marc Ribot – Space Invaders.wav
Pre-gap length 0:00:01.00
Peak level 96.6 %
Track quality 100.0 %
Test CRC DC6F98C7
Copy CRC DC6F98C7
Copy OK
Track 8
Filename I:\Work\Lucien Dubuis Trio & Marc Ribot - Ultime Cosmos\08. Lucien Dubuis Trio & Marc Ribot – La danse des machines.wav
Pre-gap length 0:00:01.00
Peak level 96.6 %
Track quality 100.0 %
Test CRC 0DC97A67
Copy CRC 0DC97A67
Copy OK
Track 9
Filename I:\Work\Lucien Dubuis Trio & Marc Ribot - Ultime Cosmos\09. Lucien Dubuis Trio & Marc Ribot – Future Rock 2.wav
Peak level 96.6 %
Track quality 100.0 %
Test CRC F00DFB10
Copy CRC F00DFB10
Copy OK
Track 10
Filename I:\Work\Lucien Dubuis Trio & Marc Ribot - Ultime Cosmos\10. Lucien Dubuis Trio & Marc Ribot – Insomnie.wav
Pre-gap length 0:00:01.00
Peak level 96.6 %
Track quality 100.0 %
Test CRC F7E3B2A1
Copy CRC F7E3B2A1
Copy OK
Track 11
Filename I:\Work\Lucien Dubuis Trio & Marc Ribot - Ultime Cosmos\11. Lucien Dubuis Trio & Marc Ribot – Shit Love.wav
Pre-gap length 0:00:02.00
Peak level 96.6 %
Track quality 100.0 %
Test CRC 9FFC77B2
Copy CRC 9FFC77B2
Copy OK
Track 12
Filename I:\Work\Lucien Dubuis Trio & Marc Ribot - Ultime Cosmos\12. Lucien Dubuis Trio & Marc Ribot – Do You Know The Way To My Home.wav
Pre-gap length 0:00:02.00
Peak level 96.6 %
Track quality 100.0 %
Test CRC 118A2992
Copy CRC 118A2992
Copy OK
No errors occurred
End of status report
 
CUE
REM GENRE Avantgarde
REM DATE 2009
REM DISCID AE0D550C
REM COMMENT "ExactAudioCopy v0.99pb5"
PERFORMER "Lucien Dubuis Trio & Marc Ribot"
TITLE "Ultime Cosmos"
FILE "01 – Ultime Cosmos.wav" WAVE
TRACK 01 AUDIO
TITLE "Ultime Cosmos"
PERFORMER "Lucien Dubuis Trio & Marc Ribot"
INDEX 01 00:00:00
TRACK 02 AUDIO
TITLE "Bal les masques!"
PERFORMER "Lucien Dubuis Trio & Marc Ribot"
INDEX 00 03:53:22
FILE "02 – Bal les masques!.wav" WAVE
INDEX 01 00:00:00
TRACK 03 AUDIO
TITLE "Echo noire"
PERFORMER "Lucien Dubuis Trio & Marc Ribot"
INDEX 00 08:26:48
FILE "03 – Echo noire.wav" WAVE
INDEX 01 00:00:00
TRACK 04 AUDIO
TITLE "Ayarashiki"
PERFORMER "Lucien Dubuis Trio & Marc Ribot"
INDEX 00 07:15:07
FILE "04 – Ayarashiki.wav" WAVE
INDEX 01 00:00:00
TRACK 05 AUDIO
TITLE "Future Rock 1"
PERFORMER "Lucien Dubuis Trio & Marc Ribot"
INDEX 00 06:41:64
FILE "05 – Future Rock 1.wav" WAVE
INDEX 01 00:00:00
TRACK 06 AUDIO
TITLE "Djidjzd"
PERFORMER "Lucien Dubuis Trio & Marc Ribot"
INDEX 00 01:28:11
FILE "06 – Djidjzd.wav" WAVE
INDEX 01 00:00:00
TRACK 07 AUDIO
TITLE "Space Invaders"
PERFORMER "Lucien Dubuis Trio & Marc Ribot"
INDEX 00 04:34:04
FILE "07 – Space Invaders.wav" WAVE
INDEX 01 00:00:00
TRACK 08 AUDIO
TITLE "La danse des machines"
PERFORMER "Lucien Dubuis Trio & Marc Ribot"
INDEX 00 05:06:33
FILE "08 – La danse des machines.wav" WAVE
INDEX 01 00:00:00
FILE "09 – Future Rock 2.wav" WAVE
TRACK 09 AUDIO
TITLE "Future Rock 2"
PERFORMER "Lucien Dubuis Trio & Marc Ribot"
INDEX 01 00:00:00
TRACK 10 AUDIO
TITLE "Insomnie"
PERFORMER "Lucien Dubuis Trio & Marc Ribot"
INDEX 00 01:54:02
FILE "10 – Insomnie.wav" WAVE
INDEX 01 00:00:00
TRACK 11 AUDIO
TITLE "Shit Love"
PERFORMER "Lucien Dubuis Trio & Marc Ribot"
INDEX 00 02:36:62
FILE "11 – Shit Love.wav" WAVE
INDEX 01 00:00:00
TRACK 12 AUDIO
TITLE "Do You Know The Way To My Home"
PERFORMER "Lucien Dubuis Trio & Marc Ribot"
INDEX 00 03:08:12
FILE "12 – Do You Know The Way To My Home.wav" WAVE
INDEX 01 00:00:00
 
Audiochecker
Started at: среда, 28. 04. 2010. - 11:27.38
12 files found
01 -===- C:\Downloads\Music\Джаз\Lucien Dubuis Trio & Marc Ribot - Ultime Cosmos - 2009\01 - Ultime Cosmos.flac
Extracted successfully
Conclusion: This track looks like CDDA with probability 100%
Tempfile successfully deleted.
02 -===- C:\Downloads\Music\Джаз\Lucien Dubuis Trio & Marc Ribot - Ultime Cosmos - 2009\02 - Bal les masques!.flac
Extracted successfully
Conclusion: This track looks like CDDA with probability 100%
Tempfile successfully deleted.
03 -===- C:\Downloads\Music\Джаз\Lucien Dubuis Trio & Marc Ribot - Ultime Cosmos - 2009\03 - Echo noire.flac
Extracted successfully
Conclusion: This track looks like CDDA with probability 100%
Tempfile successfully deleted.
04 -===- C:\Downloads\Music\Джаз\Lucien Dubuis Trio & Marc Ribot - Ultime Cosmos - 2009\04 - Ayarashiki.flac
Extracted successfully
Conclusion: This track looks like CDDA with probability 100%
Tempfile successfully deleted.
05 -===- C:\Downloads\Music\Джаз\Lucien Dubuis Trio & Marc Ribot - Ultime Cosmos - 2009\05 - Future Rock 1.flac
Extracted successfully
Conclusion: This track looks like CDDA with probability 100%
Tempfile successfully deleted.
06 -===- C:\Downloads\Music\Джаз\Lucien Dubuis Trio & Marc Ribot - Ultime Cosmos - 2009\06 - Djidjzd.flac
Extracted successfully
Conclusion: This track looks like CDDA with probability 100%
Tempfile successfully deleted.
07 -===- C:\Downloads\Music\Джаз\Lucien Dubuis Trio & Marc Ribot - Ultime Cosmos - 2009\07 - Space Invaders.flac
Extracted successfully
Conclusion: This track looks like CDDA with probability 100%
Tempfile successfully deleted.
08 -===- C:\Downloads\Music\Джаз\Lucien Dubuis Trio & Marc Ribot - Ultime Cosmos - 2009\08 - La danse des machines.flac
Extracted successfully
Conclusion: This track looks like CDDA with probability 99%
Tempfile successfully deleted.
09 -===- C:\Downloads\Music\Джаз\Lucien Dubuis Trio & Marc Ribot - Ultime Cosmos - 2009\09 - Future Rock 2.flac
Extracted successfully
Conclusion: This track looks like CDDA with probability 100%
Tempfile successfully deleted.
10 -===- C:\Downloads\Music\Джаз\Lucien Dubuis Trio & Marc Ribot - Ultime Cosmos - 2009\10 - Insomnie.flac
Extracted successfully
Conclusion: This track looks like CDDA with probability 100%
Tempfile successfully deleted.
11 -===- C:\Downloads\Music\Джаз\Lucien Dubuis Trio & Marc Ribot - Ultime Cosmos - 2009\11 - Shit Love.flac
Extracted successfully
Conclusion: This track looks like CDDA with probability 100%
Tempfile successfully deleted.
12 -===- C:\Downloads\Music\Джаз\Lucien Dubuis Trio & Marc Ribot - Ultime Cosmos - 2009\12 - Do You Know The Way To My Home.flac
Extracted successfully
Conclusion: This track looks like CDDA with probability 100%
Tempfile successfully deleted.
Finished at: среда, 28. 04. 2010. - 11:38.35 (operation time: 0:10.56)

Lucien Dubuis: alto saxophone, contrabass clarinet;
Roman Nowka: bass, guitar, vocals;
Lionel Friedli: drums;
Marc Ribot: guitar.
Any questions -> support@pro-jazz.com. По всем вопросам пишите -> support@pro-jazz.com
21:52
189
Нет комментариев. Ваш будет первым!