Вы используете незарегистрированную версию компонента "Вкладки"!

Поиск

(avant-garde jazz) Quartet Base - Allo? - 2009, FLAC (tracks+.cue), lossless

(avant-garde jazz) Quartet Base - Allo? - 2009, FLAC (tracks+.cue), lossless
Треклист:
Quartet Base / Allo?
Жанр: avant-garde jazz
Страна-производитель диска: France
Год издания диска: 2009
Издатель (лейбл): Circum-Disc
Номер по каталогу: CIDI901
Страна: France
Аудиокодек: FLAC (*.flac)
Тип рипа: tracks+.cue
Битрейт аудио: lossless
Продолжительность: 54:57
Источник (релизер): собственный рип
Наличие сканов в содержимом раздачи: да
Треклист:
1. chewing
2. m
3. troisieme experience
4.. le ton de la sirene
5. deadzone
6. ob1
7. farce
8. allo?
9. 43/26 (partie1)
10. 43/26 (partie2)
 
Лог создания рипа
Exact Audio Copy V0.99 prebeta 5 from 4. May 2009
EAC extraction logfile from 28. March 2011, 18:46
Quartet Base / Allo?
Used drive : Optiarc DVD RW AD-7243S Adapter: 0 ID: 1
Read mode : Secure
Utilize accurate stream : Yes
Defeat audio cache : Yes
Make use of C2 pointers : No
Read offset correction : 48
Overread into Lead-In and Lead-Out : No
Fill up missing offset samples with silence : Yes
Delete leading and trailing silent blocks : No
Null samples used in CRC calculations : Yes
Used interface : Native Win32 interface for Win NT & 2000
Gap handling : Appended to previous track
Used output format : User Defined Encoder
Selected bitrate : 768 kBit/s
Quality : High
Add ID3 tag : No
Command line compressor : C:\Program Files\Exact Audio Copy\FLAC\FLAC.EXE
Additional command line options : -6 -V -T "ARTIST=%a" -T "TITLE=%t" -T "ALBUM=%g" -T "DATE=%y" -T "TRACKNUMBER=%n" -T "GENRE=%m" -T "COMMENT=%e" %s -o %d
TOC of the extracted CD
Track | Start | Length | Start sector | End sector
---------------------------------------------------------
1 | 0:00.00 | 8:24.53 | 0 | 37852
2 | 8:24.53 | 1:19.39 | 37853 | 43816
3 | 9:44.17 | 9:06.40 | 43817 | 84806
4 | 18:50.57 | 5:47.24 | 84807 | 110855
5 | 24:38.06 | 5:29.29 | 110856 | 135559
6 | 30:07.35 | 6:22.45 | 135560 | 164254
7 | 36:30.05 | 5:00.15 | 164255 | 186769
8 | 41:30.20 | 6:03.51 | 186770 | 214045
9 | 47:33.71 | 5:50.43 | 214046 | 240338
10 | 53:24.39 | 3:00.28 | 240339 | 253866
Track 1
Filename C:\Documents and Settings\S\Мои документы\Torrent раздача\01. Quartet Base-Chewing Def.wav
Pre-gap length 0:00:02.00
Peak level 100.0 %
Track quality 99.9 %
Test CRC E1C4197D
Copy CRC E1C4197D
Accurately ripped (confidence 1) [AE76F8F1]
Copy OK
Track 2
Filename C:\Documents and Settings\S\Мои документы\Torrent раздача\02. Quartet Base-M Def.wav
Pre-gap length 0:00:01.00
Peak level 98.8 %
Track quality 100.0 %
Test CRC 5AED7EC6
Copy CRC 5AED7EC6
Accurately ripped (confidence 1) [0DB757DD]
Copy OK
Track 3
Filename C:\Documents and Settings\S\Мои документы\Torrent раздача\03. Quartet Base-Troisieme Experience Def.wav
Peak level 100.0 %
Track quality 100.0 %
Test CRC E0029B40
Copy CRC E0029B40
Accurately ripped (confidence 1) [27D44924]
Copy OK
Track 4
Filename C:\Documents and Settings\S\Мои документы\Torrent раздача\04. Quartet Base-Le Ton De La Sirene Def.wav
Pre-gap length 0:00:01.00
Peak level 97.5 %
Track quality 99.9 %
Test CRC 4CFA0641
Copy CRC 4CFA0641
Accurately ripped (confidence 1) [03D9DC9C]
Copy OK
Track 5
Filename C:\Documents and Settings\S\Мои документы\Torrent раздача\05. Quartet Base-Dead Zone Def.wav
Pre-gap length 0:00:01.00
Peak level 98.7 %
Track quality 99.9 %
Test CRC E78DE73A
Copy CRC E78DE73A
Accurately ripped (confidence 1) [8868FB0E]
Copy OK
Track 6
Filename C:\Documents and Settings\S\Мои документы\Torrent раздача\06. Quartet Base-Ob1 Def.wav
Pre-gap length 0:00:04.04
Peak level 100.0 %
Track quality 100.0 %
Test CRC B54B5BEB
Copy CRC B54B5BEB
Accurately ripped (confidence 1) [8EC85503]
Copy OK
Track 7
Filename C:\Documents and Settings\S\Мои документы\Torrent раздача\07. Quartet Base-Farce Def.wav
Pre-gap length 0:00:01.00
Peak level 100.0 %
Track quality 99.9 %
Test CRC 0AA15BC8
Copy CRC 0AA15BC8
Accurately ripped (confidence 1) [E67808CC]
Copy OK
Track 8
Filename C:\Documents and Settings\S\Мои документы\Torrent раздача\08. Quartet Base-Allo Def.wav
Pre-gap length 0:00:01.00
Peak level 100.0 %
Track quality 100.0 %
Test CRC 120969F8
Copy CRC 120969F8
Accurately ripped (confidence 1) [8E02FE05]
Copy OK
Track 9
Filename C:\Documents and Settings\S\Мои документы\Torrent раздача\09. Quartet Base-43 26.wav
Pre-gap length 0:00:07.04
Peak level 100.0 %
Track quality 100.0 %
Test CRC 078EBF46
Copy CRC 078EBF46
Accurately ripped (confidence 1) [F664014D]
Copy OK
Track 10
Filename C:\Documents and Settings\S\Мои документы\Torrent раздача\10. Quartet Base-43 26 2.wav
Pre-gap length 0:00:00.30
Peak level 100.0 %
Track quality 100.0 %
Test CRC 19D2DBE8
Copy CRC 19D2DBE8
Accurately ripped (confidence 1) [15F979C0]
Copy OK
All tracks accurately ripped
No errors occurred
End of status report
 
Содержание индексной карты (.CUE)
REM GENRE Avantgarde
REM DATE 2009
REM DISCID 840D380A
REM COMMENT "ExactAudioCopy v0.99pb5"
PERFORMER " Quartet Base"
TITLE "Allo?"
FILE "01. Quartet Base-Chewing Def.wav" WAVE
TRACK 01 AUDIO
TITLE "Chewing Def"
PERFORMER " Quartet Base"
INDEX 01 00:00:00
TRACK 02 AUDIO
TITLE "M Def"
PERFORMER " Quartet Base"
INDEX 00 08:23:53
FILE "02. Quartet Base-M Def.wav" WAVE
INDEX 01 00:00:00
FILE "03. Quartet Base-Troisieme Experience Def.wav" WAVE
TRACK 03 AUDIO
TITLE "Troisieme Experience Def"
PERFORMER " Quartet Base"
INDEX 01 00:00:00
TRACK 04 AUDIO
TITLE "Le Ton De La Sirene Def"
PERFORMER " Quartet Base"
INDEX 00 09:05:40
FILE "04. Quartet Base-Le Ton De La Sirene Def.wav" WAVE
INDEX 01 00:00:00
TRACK 05 AUDIO
TITLE "Dead Zone Def"
PERFORMER " Quartet Base"
INDEX 00 05:46:24
FILE "05. Quartet Base-Dead Zone Def.wav" WAVE
INDEX 01 00:00:00
TRACK 06 AUDIO
TITLE "Ob1 Def"
PERFORMER " Quartet Base"
INDEX 00 05:25:25
FILE "06. Quartet Base-Ob1 Def.wav" WAVE
INDEX 01 00:00:00
TRACK 07 AUDIO
TITLE "Farce Def"
PERFORMER " Quartet Base"
INDEX 00 06:21:45
FILE "07. Quartet Base-Farce Def.wav" WAVE
INDEX 01 00:00:00
TRACK 08 AUDIO
TITLE "Allo Def"
PERFORMER " Quartet Base"
INDEX 00 04:59:15
FILE "08. Quartet Base-Allo Def.wav" WAVE
INDEX 01 00:00:00
TRACK 09 AUDIO
TITLE "43 26"
PERFORMER " Quartet Base"
INDEX 00 05:56:47
FILE "09. Quartet Base-43 26.wav" WAVE
INDEX 01 00:00:00
TRACK 10 AUDIO
TITLE "43 26 2"
PERFORMER " Quartet Base"
INDEX 00 05:50:13
FILE "10. Quartet Base-43 26 2.wav" WAVE
INDEX 01 00:00:00
 
Состав
s. beamount - guitare
c. motury - trompette, voice
n. mahieux - contrebasse
p. orins - batterie
Другие раздачи
http://rutracker.org/forum/search.php?uid=17163016
Any questions -> support@pro-jazz.com. По всем вопросам пишите -> support@pro-jazz.com
17:17
140
Нет комментариев. Ваш будет первым!