Вы используете незарегистрированную версию компонента "Вкладки"!

Поиск

(Avant-Garde Jazz, Post-Bop) Eric Dolphy - Out to Lunch {RVG Edition} - 1964, APE (image+.cue), lossless

(Avant-Garde Jazz, Post-Bop) Eric Dolphy - Out to Lunch {RVG Edition} - 1964, APE (image+.cue), lossless
Треклист:
Eric Dolphy - Out to Lunch {RVG Edition}
Жанр: Avant-Garde Jazz, Post-Bop
Год выпуска диска: 1964
Производитель диска: UK
Аудио кодек: APE
Тип рипа: image+.cue
Битрейт аудио: lossless
Продолжительность: 42:20
Трэклист:
1 Hat and Beard
2 Something Sweet, Something Tender
3 Gazzelloni
4 Out to Lunch
5 Straight Up and Down
Музыканты:
Eric Dolphy - flute, bass clarinet, alto sax
Freddie Hubbard - trumpet
Bobby Hutcherson - vibes
Richard Davis - bass
Anthony Williams - drums
Originally recorded on February 25, 1964 at the Van Gelder Studio, Englewood Cliffs, New Jersey
Remastered in 1998 by Rudy Van Gelder
Вся коллекция BLUE NOTE - RVG Edition на трекере
Доп. информация:
Собственный рип с оригинального CD, все сканы 300 dpi. На замену данной теме, где "Комбинированное смещение чтения/записи: 0."
 
Отчёт EAC
Exact Audio Copy V0.99 prebeta 4 from 23. January 2008
Отчёт EAC об извлечении, выполненном 13. августа 2009, 8:37
Eric Dolphy / Out to Lunch
Дисковод: Optiarc DVD RW AD-7200A Adapter: 3 ID: 1
Режим чтения : Достоверность
Использование точного потока : Да
Отключение кэша аудио : Да
Использование указателей C2 : Нет
Коррекция смещения при чтении : 48
Способность читать области Lead-in и Lead-out : Нет
Заполнение пропущенных сэмплов тишиной : Да
Удаление блоков с тишиной в начале и конце : Нет
При вычислениях CRC использовались нулевые сэмплы : Да
Интерфейс : Установленный внешний ASPI-интерфейс
Выходной формат : Внутренние WAV-операции
Формат сэмплов : 44.100 Гц; 16 бит; стерео
TOC извлечённого CD
Трек | Старт | Длительность | Начальный сектор | Конечный сектор
---------------------------------------------------------------------
1 | 0:00.00 | 8:24.65 | 0 | 37864
2 | 8:24.65 | 6:03.67 | 37865 | 65156
3 | 14:28.57 | 7:23.00 | 65157 | 98381
4 | 21:51.57 | 12:09.22 | 98382 | 153078
5 | 34:01.04 | 8:19.13 | 153079 | 190516
Характеристики диапазона извлечения и сообщения об ошибках
Выбранный диапазон
Имя файла E:\Up-Down\Eric Dolphy - Out to Lunch\Eric Dolphy - Out to Lunch.wav
Пиковый уровень 97.9 %
Качество диапазона 100.0 %
CRC копии 41DC5C3D
Копирование... OK
Ошибок не произошло
AccurateRip: сводка
Трек 1 точное извлечение (доверие 29) [D89B2081]
Трек 2 точное извлечение (доверие 29) [16316F32]
Трек 3 точное извлечение (доверие 28) [0133C1DD]
Трек 4 точное извлечение (доверие 29) [0AFE793B]
Трек 5 точное извлечение (доверие 28) [EF19E25D]
Все треки извлечены точно
Конец отчёта
 
Audiochecker
AUDIOCHECKER v1.2 - by Dester - opdester@freemail.hu
~~~~~~~~~~~~~~~~~
1 -===- E:\Up-Down\Eric Dolphy - Out to Lunch\Eric Dolphy - Out to Lunch.ape
Extracted successfully
Conclusion: This track looks like CDDA with probability 100%
Any questions -> support@pro-jazz.com. По всем вопросам пишите -> support@pro-jazz.com
13:38
166
Нет комментариев. Ваш будет первым!