Вы используете незарегистрированную версию компонента "Вкладки"!

Поиск

(Avant-Garde Jazz, Post-Bop) Creative Music Studio - The Song Is You {1981, 2CD} - 2005, FLAC (image+.cue), lossless

(Avant-Garde Jazz, Post-Bop) Creative Music Studio - The Song Is You {1981, 2CD} - 2005, FLAC (image+.cue), lossless
Треклист:
•Creative Music Studio - The Song Is You {1981, 2CD}•
Жанр: Avant-Garde Jazz, Post-Bop
Год издания: 2005
Издатель (лейбл): DOUGLAS
Аудиокодек: FLAC (*.flac)
Тип рипа: image+.cue
Битрейт аудио: lossless
Продолжительность: 01:41:48
Источник (релизер): Karelin
Наличие сканов в содержимом раздачи: нет
 
CD1 - 00:48:29
Треклист:

01.Impressions [12:40]
02.No Graeter Love [13:00]
03.All Blues [22:48]
 
Лог создания рипа
Exact Audio Copy V1.0 beta 1 from 15. November 2010
EAC extraction logfile from 5. September 2012, 18:55
Creative Music Studio / Woodstock Jazz Festival 2
Used drive : ATAPI DVD A DH20A4P Adapter: 1 ID: 0
Read mode : Secure
Utilize accurate stream : Yes
Defeat audio cache : Yes
Make use of C2 pointers : No
Read offset correction : 6
Overread into Lead-In and Lead-Out : No
Fill up missing offset samples with silence : Yes
Delete leading and trailing silent blocks : No
Null samples used in CRC calculations : Yes
Used interface : Installed external ASPI interface
Used output format : User Defined Encoder
Selected bitrate : 1024 kBit/s
Quality : High
Add ID3 tag : No
Command line compressor : C:\Program Files\Exact Audio Copy\Flac\flac.exe
Additional command line options : -5 -V -T "ARTIST=%a" -T "TITLE=%t" -T "ALBUM=%g" -T "DATE=%y" -T "TRACKNUMBER=%n" -T "GENRE=%m" -T "COMMENT=[oStereo.ru]" %s
TOC of the extracted CD
Track | Start | Length | Start sector | End sector
---------------------------------------------------------
1 | 0:00.00 | 12:40.67 | 0 | 57066
2 | 12:40.67 | 13:00.18 | 57067 | 115584
3 | 25:41.10 | 22:48.11 | 115585 | 218195
Range status and errors
Selected range
Filename D:\Creative Music Studio - The Song Is You - CD1 - 1981.wav
Peak level 97.4 %
Extraction speed 1.4 X
Range quality 100.0 %
Test CRC F383A3D3
Copy CRC F383A3D3
Copy OK
No errors occurred
AccurateRip summary
Track 1 cannot be verified as accurate (confidence 3) [97A23C27], AccurateRip returned [0440DB16]
Track 2 cannot be verified as accurate (confidence 3) [F48316BB], AccurateRip returned [C41B8B31]
Track 3 cannot be verified as accurate (confidence 3) [A5E05B3A], AccurateRip returned [0E704945]
No tracks could be verified as accurate
You may have a different pressing from the one(s) in the database
End of status report
==== Log checksum A9162B33770EF84501F89C0271BDB05C5CBDFF5302247A85D03A842EB74134D3 ====
 
Содержание индексной карты (.CUE)
REM GENRE "Contemporary Jazz"
REM DATE 1981
REM DISCID 1E0B5D03
REM COMMENT "ExactAudioCopy v1.0b1"
PERFORMER "Creative Music Studio"
TITLE "Woodstock Jazz Festival 2"
FILE "Creative Music Studio - The Song Is You - CD1 - 1981.flac" WAVE
TRACK 01 AUDIO
TITLE "Impressions"
PERFORMER "Creative Music Studio"
INDEX 01 00:00:00
TRACK 02 AUDIO
TITLE "No Graeter Love"
PERFORMER "Creative Music Studio"
INDEX 01 12:40:67
TRACK 03 AUDIO
TITLE "All Blues"
PERFORMER "Creative Music Studio"
INDEX 01 25:41:10
 
CD2 - 00:53:19
Треклист:

01.Waltz [09:28]
02.Isfahan [18:58]
03.Stella by Starlight [16:04]
04.Round Midnight [08:47]
 
Лог создания рипа
Exact Audio Copy V1.0 beta 1 from 15. November 2010
EAC extraction logfile from 5. September 2012, 20:09
Creative Music Studio / Woodstock Jazz Festival 1
Used drive : ATAPI DVD A DH20A4P Adapter: 1 ID: 0
Read mode : Secure
Utilize accurate stream : Yes
Defeat audio cache : Yes
Make use of C2 pointers : No
Read offset correction : 6
Overread into Lead-In and Lead-Out : No
Fill up missing offset samples with silence : Yes
Delete leading and trailing silent blocks : No
Null samples used in CRC calculations : Yes
Used interface : Installed external ASPI interface
Used output format : User Defined Encoder
Selected bitrate : 1024 kBit/s
Quality : High
Add ID3 tag : No
Command line compressor : C:\Program Files\Exact Audio Copy\Flac\flac.exe
Additional command line options : -5 -V -T "ARTIST=%a" -T "TITLE=%t" -T "ALBUM=%g" -T "DATE=%y" -T "TRACKNUMBER=%n" -T "GENRE=%m" -T "COMMENT=[oStereo.ru]" %s
TOC of the extracted CD
Track | Start | Length | Start sector | End sector
---------------------------------------------------------
1 | 0:00.00 | 9:28.62 | 0 | 42661
2 | 9:28.62 | 18:58.20 | 42662 | 128031
3 | 28:27.07 | 16:04.08 | 128032 | 200339
4 | 44:31.15 | 8:47.72 | 200340 | 239936
Range status and errors
Selected range
Filename D:\Creative Music Studio - The Song Is You - CD2 - 1981.wav
Peak level 97.6 %
Extraction speed 0.5 X
Range quality 100.0 %
Test CRC 0BDB1F8A
Copy CRC 0BDB1F8A
Copy OK
No errors occurred
AccurateRip summary
Track 1 not present in database
Track 2 not present in database
Track 3 not present in database
Track 4 not present in database
None of the tracks are present in the AccurateRip database
End of status report
==== Log checksum C84E40C66BB2F8710F5AE10445A951A7A5850482490E986A11861EEFDAC074F8 ====
 
Содержание индексной карты (.CUE)
REM GENRE Jazz
REM DATE 1981
REM DISCID 310C7F04
REM COMMENT "ExactAudioCopy v1.0b1"
PERFORMER "Creative Music Studio"
TITLE "Woodstock Jazz Festival 1"
FILE "Creative Music Studio - The Song Is You - CD2 - 1981.flac" WAVE
TRACK 01 AUDIO
TITLE "Waltz"
PERFORMER "Creative Music Studio"
INDEX 01 00:00:00
TRACK 02 AUDIO
TITLE "Isfahan"
PERFORMER "Creative Music Studio"
INDEX 01 09:28:62
TRACK 03 AUDIO
TITLE "Stella by Starlight"
PERFORMER "Creative Music Studio"
INDEX 01 28:27:07
TRACK 04 AUDIO
TITLE "Round Midnight"
PERFORMER "Creative Music Studio"
INDEX 01 44:31:15
 
Состав
Chick Corea (p)
Anthony Braxton (as)
Jack DeJohnette (dr)
Lee Konitz (as)
Pat Metheny (g)
Miroslav Vitous (b)Recording information: Woodstock, NY (09/19/1981).
Any questions -> support@pro-jazz.com. По всем вопросам пишите -> support@pro-jazz.com
03:39
154
Нет комментариев. Ваш будет первым!