Вы используете незарегистрированную версию компонента "Вкладки"!

Поиск

(Avant-Garde Jazz, Post-Bop) [CD] Ran Blake - The Compleat Ran Blake, Vol.1: Painted Rhythms - 1987, FLAC (tracks+.cue), lossless

(Avant-Garde Jazz, Post-Bop) [CD] Ran Blake - The Compleat Ran Blake, Vol.1: Painted Rhythms - 1987, FLAC (tracks+.cue), lossless
Треклист:
Ran Blake - The Compleat Ran Blake, Vol.1: Painted Rhythms
Жанр: Avant-Garde Jazz, Post-Bop
Носитель: CD
Страна-производитель диска: США
Год издания: 1987
Издатель (лейбл): GM Recordings
Номер по каталогу: GM 3007 CD
Аудиокодек: FLAC (*.flac)
Тип рипа: tracks+.cue
Битрейт аудио: lossless
Продолжительность: 47:16
Источник (релизер): quince25 (what)
Наличие сканов в содержимом раздачи: сетевые
Треклист:
01. Azure (Ellington) - 3:07
02. Skrontch (Ellington) - 2:39
03. Drop Me Off in Harlem (Ellington) - 1:50
04. What's Your Story, Morning Glory? (Williams-Webster-Lawrence) - 2:44
05. Ezzthetic (Russell) - 3:57
06. Interlude (Rugolo-Russell) - 5:05
07. Painted Rhythm (Kenton) - 2:24
08. Who (Kern-Hammerstein-Harbach) - 2:36
09. Smoke Gets in Your Eyes (Kern-Harbach) - 5:59
10. Impresario of Death (Blake) - 3:44
11. Moonlight on the Ganges (Ewing-Wallace) - 2:29
12. Halleluja, I Love Her So (Charles) - 1:50
13. Maple Leaf Rag (Joplin) - 3:17
14. Maple Leaf Rag (Joplin) - 3:26
15. Maple Leaf Rag (Joplin) - 2:09
Состав:
Ran Blake - piano
Recorded at Houghton Chapel, Wellesley College, Wellesley, MA (#1-13), and at the North Shore Music Theatre, Beverly, MA (#14-15) in December 1985.
 
Лог создания рипа
Exact Audio Copy V1.0 beta 3 from 29. August 2011
EAC extraction logfile from 27. March 2014, 19:46
Ran Blake / Painted Rhythms - The Compleat Ran Blake Vol. 1
Used drive : _NEC DVD_RW ND-3550A Adapter: 3 ID: 0
Read mode : Secure
Utilize accurate stream : Yes
Defeat audio cache : Yes
Make use of C2 pointers : No
Read offset correction : 48
Overread into Lead-In and Lead-Out : No
Fill up missing offset samples with silence : Yes
Delete leading and trailing silent blocks : No
Null samples used in CRC calculations : Yes
Used interface : Native Win32 interface for Win NT & 2000
Gap handling : Appended to previous track
Used output format : User Defined Encoder
Selected bitrate : 1024 kBit/s
Quality : High
Add ID3 tag : No
Command line compressor : D:\Program Files\Exact Audio Copy\Flac\flac.exe
Additional command line options : -8 -V -T "ARTIST=%artist%" -T "TITLE=%title%" -T "ALBUM=%albumtitle%" -T "DATE=%year%" -T "TRACKNUMBER=%tracknr%" -T "GENRE=%genre%" -T "PERFORMER=%albuminterpret%" -T "COMPOSER=%composer%" %haslyrics%--tag-from-file=LYRICS="%lyricsfile%"%haslyrics% -T "ALBUMARTIST=%albumartist%" -T "DISCNUMBER=%cdnumber%" -T "TOTALDISCS=%totalcds%" -T "TOTALTRACKS=%numtracks%" -T "COMMENT=%comment%" %source% -o %dest%
TOC of the extracted CD
Track | Start | Length | Start sector | End sector
---------------------------------------------------------
1 | 0:00.00 | 3:07.25 | 0 | 14049
2 | 3:07.25 | 2:39.03 | 14050 | 25977
3 | 5:46.28 | 1:49.65 | 25978 | 34217
4 | 7:36.18 | 2:44.20 | 34218 | 46537
5 | 10:20.38 | 3:56.42 | 46538 | 64279
6 | 14:17.05 | 5:04.60 | 64280 | 87139
7 | 19:21.65 | 2:24.03 | 87140 | 97942
8 | 21:45.68 | 2:35.47 | 97943 | 109614
9 | 24:21.40 | 5:58.70 | 109615 | 136534
10 | 30:20.35 | 3:44.25 | 136535 | 153359
11 | 34:04.60 | 2:28.73 | 153360 | 164532
12 | 36:33.58 | 1:50.10 | 164533 | 172792
13 | 38:23.68 | 3:17.17 | 172793 | 187584
14 | 41:41.10 | 3:26.25 | 187585 | 203059
15 | 45:07.35 | 2:09.18 | 203060 | 212752
Track 1
Filename F:\WhatCD\Ran Blake - Painted Rhythms, Vol. 1\Ran Blake - Painted Rhythms, Vol. 1 [flac]\01 Ran Blake - Azure.wav
Pre-gap length 0:00:02.00
Peak level 56.6 %
Extraction speed 2.8 X
Track quality 100.0 %
Test CRC D2865D7B
Copy CRC D2865D7B
Accurately ripped (confidence 3) [7A060378] (AR v2)
Copy OK
Track 2
Filename F:\WhatCD\Ran Blake - Painted Rhythms, Vol. 1\Ran Blake - Painted Rhythms, Vol. 1 [flac]\02 Ran Blake - Skrontch.wav
Pre-gap length 0:00:03.00
Peak level 98.3 %
Extraction speed 2.5 X
Track quality 99.9 %
Test CRC C0BAE069
Copy CRC C0BAE069
Accurately ripped (confidence 3) [CA1E1C04] (AR v2)
Copy OK
Track 3
Filename F:\WhatCD\Ran Blake - Painted Rhythms, Vol. 1\Ran Blake - Painted Rhythms, Vol. 1 [flac]\03 Ran Blake - Drop Me Off in Harlem.wav
Pre-gap length 0:00:03.24
Peak level 100.0 %
Extraction speed 2.3 X
Track quality 99.9 %
Test CRC CD339177
Copy CRC CD339177
Accurately ripped (confidence 3) [613519D2] (AR v2)
Copy OK
Track 4
Filename F:\WhatCD\Ran Blake - Painted Rhythms, Vol. 1\Ran Blake - Painted Rhythms, Vol. 1 [flac]\04 Ran Blake - What's Your Story, Morning Glory.wav
Pre-gap length 0:00:03.84
Peak level 100.0 %
Extraction speed 3.3 X
Track quality 100.0 %
Test CRC 12BEEFA2
Copy CRC 12BEEFA2
Accurately ripped (confidence 3) [B2C93A6B] (AR v2)
Copy OK
Track 5
Filename F:\WhatCD\Ran Blake - Painted Rhythms, Vol. 1\Ran Blake - Painted Rhythms, Vol. 1 [flac]\05 Ran Blake - Ezzthetic.wav
Pre-gap length 0:00:03.70
Peak level 96.5 %
Extraction speed 3.7 X
Track quality 100.0 %
Test CRC 9BE54EEC
Copy CRC 9BE54EEC
Accurately ripped (confidence 3) [1467BC4B] (AR v2)
Copy OK
Track 6
Filename F:\WhatCD\Ran Blake - Painted Rhythms, Vol. 1\Ran Blake - Painted Rhythms, Vol. 1 [flac]\06 Ran Blake - Interlude.wav
Pre-gap length 0:00:03.09
Peak level 45.4 %
Extraction speed 3.7 X
Track quality 99.9 %
Test CRC 958100BB
Copy CRC 958100BB
Accurately ripped (confidence 3) [F8B1A128] (AR v2)
Copy OK
Track 7
Filename F:\WhatCD\Ran Blake - Painted Rhythms, Vol. 1\Ran Blake - Painted Rhythms, Vol. 1 [flac]\07 Ran Blake - Painted Rhythm.wav
Pre-gap length 0:00:04.02
Peak level 65.9 %
Extraction speed 2.7 X
Track quality 99.8 %
Test CRC 4CC47A9A
Copy CRC 4CC47A9A
Accurately ripped (confidence 3) [2F546F6C] (AR v2)
Copy OK
Track 8
Filename F:\WhatCD\Ran Blake - Painted Rhythms, Vol. 1\Ran Blake - Painted Rhythms, Vol. 1 [flac]\08 Ran Blake - Who.wav
Pre-gap length 0:00:03.10
Peak level 89.2 %
Extraction speed 4.0 X
Track quality 100.0 %
Test CRC 5B9BDC63
Copy CRC 5B9BDC63
Accurately ripped (confidence 3) [252927C3] (AR v2)
Copy OK
Track 9
Filename F:\WhatCD\Ran Blake - Painted Rhythms, Vol. 1\Ran Blake - Painted Rhythms, Vol. 1 [flac]\09 Ran Blake - Smoke Gets In Your Eyes.wav
Pre-gap length 0:00:02.60
Peak level 82.0 %
Extraction speed 4.4 X
Track quality 99.9 %
Test CRC D53921B1
Copy CRC D53921B1
Accurately ripped (confidence 3) [3C32DB14] (AR v2)
Copy OK
Track 10
Filename F:\WhatCD\Ran Blake - Painted Rhythms, Vol. 1\Ran Blake - Painted Rhythms, Vol. 1 [flac]\10 Ran Blake - Impresario of Death.wav
Pre-gap length 0:00:04.82
Peak level 100.0 %
Extraction speed 3.7 X
Track quality 99.9 %
Test CRC D39A6552
Copy CRC D39A6552
Accurately ripped (confidence 3) [B7F39966] (AR v2)
Copy OK
Track 11
Filename F:\WhatCD\Ran Blake - Painted Rhythms, Vol. 1\Ran Blake - Painted Rhythms, Vol. 1 [flac]\11 Ran Blake - Moonlight on the Ganges.wav
Pre-gap length 0:00:03.96
Peak level 100.0 %
Extraction speed 3.2 X
Track quality 99.8 %
Test CRC 18392783
Copy CRC 18392783
Accurately ripped (confidence 3) [60B8A937] (AR v2)
Copy OK
Track 12
Filename F:\WhatCD\Ran Blake - Painted Rhythms, Vol. 1\Ran Blake - Painted Rhythms, Vol. 1 [flac]\12 Ran Blake - Halleluja, I Love Her So.wav
Pre-gap length 0:00:02.97
Peak level 100.0 %
Extraction speed 4.3 X
Track quality 100.0 %
Test CRC F927B3FD
Copy CRC F927B3FD
Accurately ripped (confidence 3) [06E03837] (AR v2)
Copy OK
Track 13
Filename F:\WhatCD\Ran Blake - Painted Rhythms, Vol. 1\Ran Blake - Painted Rhythms, Vol. 1 [flac]\13 Ran Blake - Maple Leaf Rag (1).wav
Pre-gap length 0:00:04.06
Peak level 100.0 %
Extraction speed 3.3 X
Track quality 99.8 %
Test CRC 003E0CA3
Copy CRC 003E0CA3
Accurately ripped (confidence 3) [D69BBE1B] (AR v2)
Copy OK
Track 14
Filename F:\WhatCD\Ran Blake - Painted Rhythms, Vol. 1\Ran Blake - Painted Rhythms, Vol. 1 [flac]\14 Ran Blake - Maple Leaf Rag (2).wav
Pre-gap length 0:00:03.53
Peak level 79.6 %
Extraction speed 5.2 X
Track quality 100.0 %
Test CRC 97885652
Copy CRC 97885652
Accurately ripped (confidence 3) [089AB78E] (AR v2)
Copy OK
Track 15
Filename F:\WhatCD\Ran Blake - Painted Rhythms, Vol. 1\Ran Blake - Painted Rhythms, Vol. 1 [flac]\15 Ran Blake - Maple Leaf Rag (3).wav
Pre-gap length 0:00:05.53
Peak level 100.0 %
Extraction speed 4.8 X
Track quality 100.0 %
Test CRC B48D88E5
Copy CRC B48D88E5
Accurately ripped (confidence 3) [5789ADAC] (AR v2)
Copy OK
All tracks accurately ripped
No errors occurred
End of status report
==== Log checksum 9E4008952A4A0487D971E0610C4A0F59A7676977F7B8D79A9FF8861B6D2A3AAC ====
 
Содержание индексной карты (.CUE)
REM GENRE Jazz
REM DATE 1987
REM DISCID C80B140F
REM COMMENT "ExactAudioCopy v1.0b3"
PERFORMER "Ran Blake"
TITLE "The Compleat Ran Blake, Vol.1: Painted Rhythms"
FILE "01 - Azure.wav" WAVE
TRACK 01 AUDIO
TITLE "Azure"
PERFORMER "Ran Blake"
INDEX 01 00:00:00
TRACK 02 AUDIO
TITLE "Skrontch"
PERFORMER "Ran Blake"
INDEX 00 03:04:25
FILE "02 - Skrontch.wav" WAVE
INDEX 01 00:00:00
TRACK 03 AUDIO
TITLE "Drop Me Off in Harlem"
PERFORMER "Ran Blake"
INDEX 00 02:35:60
FILE "03 - Drop Me Off in Harlem.wav" WAVE
INDEX 01 00:00:00
TRACK 04 AUDIO
TITLE "What's Your Story, Morning Glory?"
PERFORMER "Ran Blake"
INDEX 00 01:46:02
FILE "04 - What's Your Story, Morning Glory.wav" WAVE
INDEX 01 00:00:00
TRACK 05 AUDIO
TITLE "Ezzthetic"
PERFORMER "Ran Blake"
INDEX 00 02:40:42
FILE "05 - Ezzthetic.wav" WAVE
INDEX 01 00:00:00
TRACK 06 AUDIO
TITLE "Interlude"
PERFORMER "Ran Blake"
INDEX 00 03:53:35
FILE "06 - Interlude.wav" WAVE
INDEX 01 00:00:00
TRACK 07 AUDIO
TITLE "Painted Rhythm"
PERFORMER "Ran Blake"
INDEX 00 05:00:58
FILE "07 - Painted Rhythm.wav" WAVE
INDEX 01 00:00:00
TRACK 08 AUDIO
TITLE "Who"
PERFORMER "Ran Blake"
INDEX 00 02:20:70
FILE "08 - Who.wav" WAVE
INDEX 01 00:00:00
TRACK 09 AUDIO
TITLE "Smoke Gets in Your Eyes"
PERFORMER "Ran Blake"
INDEX 00 02:33:02
FILE "09 - Smoke Gets in Your Eyes.wav" WAVE
INDEX 01 00:00:00
TRACK 10 AUDIO
TITLE "Impresario of Death"
PERFORMER "Ran Blake"
INDEX 00 05:54:08
FILE "10 - Impresario of Death.wav" WAVE
INDEX 01 00:00:00
TRACK 11 AUDIO
TITLE "Moonlight on the Ganges"
PERFORMER "Ran Blake"
INDEX 00 03:40:28
FILE "11 - Moonlight on the Ganges.wav" WAVE
INDEX 01 00:00:00
TRACK 12 AUDIO
TITLE "Halleluja, I Love Her So"
PERFORMER "Ran Blake"
INDEX 00 02:26:00
FILE "12 - Halleluja, I Love Her So.wav" WAVE
INDEX 01 00:00:00
TRACK 13 AUDIO
TITLE "Maple Leaf Rag"
PERFORMER "Ran Blake"
INDEX 00 01:46:05
FILE "13 - Maple Leaf Rag.wav" WAVE
INDEX 01 00:00:00
TRACK 14 AUDIO
TITLE "Maple Leaf Rag"
PERFORMER "Ran Blake"
INDEX 00 03:13:52
FILE "14 - Maple Leaf Rag.wav" WAVE
INDEX 01 00:00:00
TRACK 15 AUDIO
TITLE "Maple Leaf Rag"
PERFORMER "Ran Blake"
INDEX 00 03:20:60
FILE "15 - Maple Leaf Rag.wav" WAVE
INDEX 01 00:00:00
 
Отчет CUETools
[CUETools log; Date: 04.11.2014 18:42:02; Version: 2.1.5]
[CTDB TOCID: k7hsPbfoqmncR0mWJgGEqa6GUyw-] found.
Track | CTDB Status
1 | (3/3) Accurately ripped
2 | (3/3) Accurately ripped
3 | (3/3) Accurately ripped
4 | (3/3) Accurately ripped
5 | (3/3) Accurately ripped
6 | (3/3) Accurately ripped
7 | (3/3) Accurately ripped
8 | (3/3) Accurately ripped
9 | (3/3) Accurately ripped
10 | (3/3) Accurately ripped
11 | (3/3) Accurately ripped
12 | (3/3) Accurately ripped
13 | (3/3) Accurately ripped
14 | (3/3) Accurately ripped
15 | (3/3) Accurately ripped
[AccurateRip ID: 001a192d-012aed59-c80b140f] found.
Track [ CRC | V2 ] Status
01 [d82b8872|7a060378] (0+3/3) Accurately ripped
02 [1e57a0a8|ca1e1c04] (0+3/3) Accurately ripped
03 [730f4f6e|613519d2] (0+3/3) Accurately ripped
04 [09f3e737|b2c93a6b] (0+3/3) Accurately ripped
05 [5d864327|1467bc4b] (0+3/3) Accurately ripped
06 [16f89053|f8b1a128] (0+3/3) Accurately ripped
07 [8d48477c|2f546f6c] (0+3/3) Accurately ripped
08 [ebb9508f|252927c3] (0+3/3) Accurately ripped
09 [a52cebcd|3c32db14] (0+3/3) Accurately ripped
10 [ced53657|b7f39966] (0+3/3) Accurately ripped
11 [89335e6e|60b8a937] (0+3/3) Accurately ripped
12 [93047f1a|06e03837] (0+3/3) Accurately ripped
13 [1c3b681d|d69bbe1b] (0+3/3) Accurately ripped
14 [275c003a|089ab78e] (0+3/3) Accurately ripped
15 [52a776c0|5789adac] (0+3/3) Accurately ripped
Track Peak [ CRC32 ] [W/O NULL] [ LOG ]
-- 100,0 [759EAF6E] [F4B42B0C]
01 56,6 [D2865D7B] [2B49A797] CRC32
02 98,2 [C0BAE069] [7FA7BC8B] CRC32
03 100,0 [CD339177] [2A3D54CD] CRC32
04 100,0 [12BEEFA2] [5A6E220C] CRC32
05 96,5 [9BE54EEC] [559647F5] CRC32
06 45,4 [958100BB] [BFF32331] CRC32
07 65,9 [4CC47A9A] [ECE19B89] CRC32
08 89,2 [5B9BDC63] [15A1710A] CRC32
09 81,9 [D53921B1] [3077FA35] CRC32
10 100,0 [D39A6552] [DC41F893] CRC32
11 100,0 [18392783] [F1284D8A] CRC32
12 100,0 [F927B3FD] [1283E288] CRC32
13 100,0 [003E0CA3] [2E406916] CRC32
14 79,6 [97885652] [12F8D2FB] CRC32
15 100,0 [B48D88E5] [7C030C3E] CRC32
 
Review by Scott Yanow
The first of two Ran Blake solo albums cut for the GM label, this CD may not offer the "compleat" Blake, but it does feature the dramatic pianist (who constantly improvises while making every note count) in particularly inventive form and is a strong introduction to his unique playing. With one exception ("Impresario of Death"), the pianist sticks to standards, but he makes them sound unlike any previous rendition. He interprets three very different versions of "Maple Leaf Rag" (a fourth is on the second volume), three Duke Ellington songs (including "Drop Me Off in Harlem"), and numbers by Mary Lou Williams, George Russell, Pete Rugolo, Stan Kenton and Jerome Kern, plus the standard "Moonlight on the Ganges." Highly recommended, as are most of Ran Blake's unique recordings.
По всем вопросам пишите личное сообщение пользователю M0p94ok.
05:44
161
Нет комментариев. Ваш будет первым!