Вы используете незарегистрированную версию компонента "Вкладки"!

Поиск

(Avant-Garde Jazz, Post-Bop) Andrew Hill - Change (1966) - 2007 {BN Connoisseur}, FLAC (tracks+.cue), lossless

(Avant-Garde Jazz, Post-Bop) Andrew Hill - Change (1966) - 2007 {BN Connoisseur}, FLAC (tracks+.cue), lossless
Треклист:
Andrew Hill – Change (1966)
Жанр: Avant-Garde Jazz, Post-Bop
Год издания: 2007
Издатель (лейбл): Blue Note
Номер по каталогу: 0946 3 85190 2 7
Аудиокодек: FLAC (*.flac)
Тип рипа: tracks+.cue
Битрейт аудио: lossless
Продолжительность: 55:34
Rip by ivolivi
Наличие сканов в содержимом раздачи: да
Треклист:
01. Violence (11:07)
02. Pain (3:53)
03. Illusion (5:54)
04. Hope (7:17)
05. Lust (5:16)
06. Desire (6:33)
07. Violence (alt tk) (7:02)
08. Desire (alt tk) (8:31)
Personnel:
Andrew Hill - p
Sam Rivers - ts
Walter Booker - b
J.C. Moses - d
Rec.: Van Gelder Studio, Englewood Cliffs, NJ, March 7, 1966.
 
 
Лог создания рипа
EAC extraction logfile from 10. January 2008, 12:25 for CD
Andrew Hill / Change
Used drive : HL-DT-STDVDRAM GSA-4163B Adapter: 1 ID: 1
Read mode : Secure with NO C2, accurate stream, disable cache
Read offset correction : 667
Overread into Lead-In and Lead-Out : No
Used output format : Internal WAV Routines
44.100 Hz; 16 Bit; Stereo
Other options :
Fill up missing offset samples with silence : Yes
Delete leading and trailing silent blocks : No
Installed external ASPI interface
Track 1
Filename D:\Andrew Hill - Change (1966)[FLAC]{Connoisseur}\01 - Violence.wav
Pre-gap length 0:00:02.00
Peak level 100.0 %
Track quality 100.0 %
Test CRC 0320EC5D
Copy CRC 0320EC5D
Copy OK
Track 2
Filename D:\Andrew Hill - Change (1966)[FLAC]{Connoisseur}\02 - Pain.wav
Pre-gap length 0:00:01.63
Peak level 100.0 %
Track quality 99.9 %
Test CRC 10E15B9B
Copy CRC 10E15B9B
Copy OK
Track 3
Filename D:\Andrew Hill - Change (1966)[FLAC]{Connoisseur}\03 - Illusion.wav
Pre-gap length 0:00:01.38
Peak level 100.0 %
Track quality 100.0 %
Test CRC 1D962F92
Copy CRC 1D962F92
Copy OK
Track 4
Filename D:\Andrew Hill - Change (1966)[FLAC]{Connoisseur}\04 - Hope.wav
Pre-gap length 0:00:01.38
Peak level 100.0 %
Track quality 100.0 %
Test CRC 2C4ADA40
Copy CRC 2C4ADA40
Copy OK
Track 5
Filename D:\Andrew Hill - Change (1966)[FLAC]{Connoisseur}\05 - Lust.wav
Pre-gap length 0:00:01.07
Peak level 97.0 %
Track quality 100.0 %
Test CRC D3015E6D
Copy CRC D3015E6D
Copy OK
Track 6
Filename D:\Andrew Hill - Change (1966)[FLAC]{Connoisseur}\06 - Desire.wav
Pre-gap length 0:00:01.35
Peak level 100.0 %
Track quality 100.0 %
Test CRC 7E8097DF
Copy CRC 7E8097DF
Copy OK
Track 7
Filename D:\Andrew Hill - Change (1966)[FLAC]{Connoisseur}\07 - Violence (alt. tk).wav
Pre-gap length 0:00:01.49
Peak level 98.9 %
Track quality 99.9 %
Test CRC B26CA508
Copy CRC B26CA508
Copy OK
Track 8
Filename D:\Andrew Hill - Change (1966)[FLAC]{Connoisseur}\08 - Desire (alt. tk).wav
Peak level 93.3 %
Track quality 99.9 %
Test CRC A3A5318D
Copy CRC A3A5318D
Copy OK
No errors occured
End of status report
 
Содержание индексной карты (.CUE)
REM DATE 1966
REM DISCID 5F0D0508
REM COMMENT "ExactAudioCopy v0.95b2"
PERFORMER "Andrew Hill"
TITLE "Change"
FILE "01. Violence.flac" WAVE
TRACK 01 AUDIO
TITLE "Violence"
PERFORMER "Andrew Hill"
INDEX 01 00:00:00
TRACK 02 AUDIO
TITLE "Pain"
PERFORMER "Andrew Hill"
INDEX 00 11:04:65
FILE "02. Pain.flac" WAVE
INDEX 01 00:00:00
TRACK 03 AUDIO
TITLE "Illusion"
PERFORMER "Andrew Hill"
INDEX 00 03:51:67
FILE "03. Illusion.flac" WAVE
INDEX 01 00:00:00
TRACK 04 AUDIO
TITLE "Hope"
PERFORMER "Andrew Hill"
INDEX 00 05:52:52
FILE "04. Hope.flac" WAVE
INDEX 01 00:00:00
TRACK 05 AUDIO
TITLE "Lust"
PERFORMER "Andrew Hill"
INDEX 00 07:16:24
FILE "05. Lust.flac" WAVE
INDEX 01 00:00:00
TRACK 06 AUDIO
TITLE "Desire"
PERFORMER "Andrew Hill"
INDEX 00 05:14:66
FILE "06. Desire.flac" WAVE
INDEX 01 00:00:00
TRACK 07 AUDIO
TITLE "Violence (alt tk)"
PERFORMER "Andrew Hill"
INDEX 00 06:31:49
FILE "07. Violence (alt tk).flac" WAVE
INDEX 01 00:00:00
FILE "08. Desire (alt tk).flac" WAVE
TRACK 08 AUDIO
TITLE "Desire (alt tk)"
PERFORMER "Andrew Hill"
INDEX 01 00:00:00
 
AccurateRip
[CUETools log; Date: 03.12.2012 14:21:35; Version: 2.0.9]
[AccurateRip ID: 001141bb-00713f35-5f0d0508] found.
Track [ CRC ] Status
01 [20aa5372] (10/15) Accurately ripped
02 [e92a30a2] (10/14) Accurately ripped
03 [008164ee] (10/15) Accurately ripped
04 [04cfcc29] (10/15) Accurately ripped
05 [d0c2c42d] (10/15) Accurately ripped
06 [a5124571] (10/15) Accurately ripped
07 [415cac76] (10/15) Accurately ripped
08 [d6329d21] (10/15) Accurately ripped
Offsetted by -18:
01 [39295c72] (02/15) Accurately ripped
02 [81889408] (02/14) Accurately ripped
03 [a4cad79f] (02/15) Accurately ripped
04 [24cb9c3a] (02/15) Accurately ripped
05 [1ea5260a] (02/15) Accurately ripped
06 [d0dfde82] (02/15) Accurately ripped
07 [0a0ece55] (02/15) Accurately ripped
08 [97eb50b2] (02/15) Accurately ripped
Track Peak [ CRC32 ] [W/O NULL] [ LOG ]
-- 100,0 [08D4F222] [9896A9C3]
01 100,0 [21248D31] [0320EC5D] W/O NULL
02 100,0 [48FE4578] [10E15B9B] W/O NULL
03 100,0 [C914B942] [1D962F92] W/O NULL
04 100,0 [3BFBCBAD] [2C4ADA40] W/O NULL
05 97,0 [3424962A] [D3015E6D] W/O NULL
06 100,0 [8DDE9352] [7E8097DF] W/O NULL
07 98,9 [2F527BFD] [B26CA508] W/O NULL
08 93,3 [9CA7C276] [A3A5318D] W/O NULL
Any questions -> support@pro-jazz.com. По всем вопросам пишите -> support@pro-jazz.com
06:08
289
Нет комментариев. Ваш будет первым!