Вы используете незарегистрированную версию компонента "Вкладки"!

Поиск

(Avant-Garde Jazz, Post Bop, Afro-Cuban, Modal Jazz, Modern Jazz) Billy Bang - Prayer for Peace - 2010, FLAC (tracks+.cue), lossless

(Avant-Garde Jazz, Post Bop, Afro-Cuban, Modal Jazz, Modern Jazz) Billy Bang - Prayer for Peace - 2010, FLAC (tracks+.cue), lossless
Треклист:
Billy Bang / Prayer for Peace
Жанр: Avant-Garde Jazz, Post Bop, Afro-Cuban, Modal Jazz, Modern Jazz
Год издания: 2010
Издатель (лейбл): TUM Records
Номер по каталогу: TUM CD 018
Страна: USA
Аудиокодек: FLAC (*.flac)
Тип рипа: tracks+.cue
Битрейт аудио: lossless
Продолжительность: 01:10:01
Источник (релизер): Raiders
Наличие сканов в содержимом раздачи: нет
Треклист:
1 Only Time Will Tell (Stuff Smith) 7:14
2 At Play In the Fields of the Lord (Billy Bang) 9:32
3 Dance of the Manakin (Billy Bang) 9:58
4 Prayer for Peace (Billy Bang) 19:55
5 Chan Chan (Compay Segundo) 7:02
6 Dark Silhouette (Billy Bang) 9:36
7 Jupiter´s Future (Billy Bang) 6:31
At Play In the Fields of the Lord
 
Лог создания рипа
Exact Audio Copy V1.0 beta 3 from 29. August 2011
EAC extraction logfile from 19. December 2011, 21:06
Billy Bang / Prayer for Peace
Used drive : _NEC DVD_RW ND-3550A Adapter: 3 ID: 0
Read mode : Secure
Utilize accurate stream : Yes
Defeat audio cache : Yes
Make use of C2 pointers : No
Read offset correction : 48
Overread into Lead-In and Lead-Out : No
Fill up missing offset samples with silence : Yes
Delete leading and trailing silent blocks : No
Null samples used in CRC calculations : Yes
Used interface : Native Win32 interface for Win NT & 2000
Gap handling : Appended to previous track
Used output format : User Defined Encoder
Selected bitrate : 128 kBit/s
Quality : High
Add ID3 tag : No
Command line compressor : C:\Program Files (x86)\flac\flac.exe
Additional command line options : -8 -V -T "ARTIST=%artist%" -T "TITLE=%title%" -T "ALBUM=%albumtitle%" -T "DATE=%year%" -T "TRACKNUMBER=%tracknr%" -T "GENRE=%genre%" -T "PERFORMER=%albuminterpret%" -T "COMPOSER=%composer%" %haslyrics%--tag-from-file=LYRICS="%lyricsfile%"%haslyrics% -T "ALBUMARTIST=%albumartist%" -T "DISCNUMBER=%cdnumber%" -T "TOTALDISCS=%totalcds%" -T "TOTALTRACKS=%numtracks%" -T "COMMENT=%comment%" %source% -o %dest%
TOC of the extracted CD
Track | Start | Length | Start sector | End sector
---------------------------------------------------------
1 | 0:00.00 | 7:14.27 | 0 | 32576
2 | 7:14.27 | 9:32.19 | 32577 | 75495
3 | 16:46.46 | 10:00.20 | 75496 | 120515
4 | 26:46.66 | 19:57.44 | 120516 | 210334
5 | 46:44.35 | 7:05.06 | 210335 | 242215
6 | 53:49.41 | 9:38.67 | 242216 | 285632
7 | 63:28.33 | 6:31.37 | 285633 | 314994
Track 1
Filename C:\rips\p4p\01 - Only Time Will Tell.wav
Pre-gap length 0:00:02.00
Peak level 96.6 %
Extraction speed 5.2 X
Track quality 100.0 %
Test CRC 2737374D
Copy CRC 2737374D
Accurately ripped (confidence 3) [E93CA229] (AR v1)
Copy OK
Track 2
Filename C:\rips\p4p\02 - At Play in the Fields of the Lord.wav
Pre-gap length 0:00:02.43
Peak level 81.5 %
Extraction speed 6.0 X
Track quality 100.0 %
Test CRC 3E97BFE0
Copy CRC 3E97BFE0
Accurately ripped (confidence 3) [A3BACD5E] (AR v1)
Copy OK
Track 3
Filename C:\rips\p4p\03 - Dance of the Manakin.wav
Peak level 73.2 %
Extraction speed 6.4 X
Track quality 99.9 %
Test CRC C87C56BC
Copy CRC C87C56BC
Accurately ripped (confidence 3) [54CA1AB6] (AR v1)
Copy OK
Track 4
Filename C:\rips\p4p\04 - Prayer for Peace.wav
Pre-gap length 0:00:02.42
Peak level 80.9 %
Extraction speed 8.3 X
Track quality 100.0 %
Test CRC 9C463AA7
Copy CRC 9C463AA7
Accurately ripped (confidence 3) [A0DDCFF6] (AR v1)
Copy OK
Track 5
Filename C:\rips\p4p\05 - Chan Chan.wav
Pre-gap length 0:00:02.42
Peak level 88.0 %
Extraction speed 8.7 X
Track quality 100.0 %
Test CRC C0D7E775
Copy CRC C0D7E775
Accurately ripped (confidence 3) [793C6D2C] (AR v1)
Copy OK
Track 6
Filename C:\rips\p4p\06 - Dark Silhouette.wav
Pre-gap length 0:00:02.42
Peak level 83.1 %
Extraction speed 9.2 X
Track quality 100.0 %
Test CRC C306D185
Copy CRC C306D185
Accurately ripped (confidence 3) [477F305B] (AR v1)
Copy OK
Track 7
Filename C:\rips\p4p\07 - Jupiters Fortune.wav
Pre-gap length 0:00:02.43
Peak level 86.1 %
Extraction speed 9.4 X
Track quality 100.0 %
Test CRC 37DBB338
Copy CRC 37DBB338
Accurately ripped (confidence 3) [E131325A] (AR v1)
Copy OK
All tracks accurately ripped
No errors occurred
End of status report
---- CUETools DB Plugin V2.1.3
[CTDB TOCID: APGzcNhTBbw7r6_Feqmy8zvLsNc-] disk not present in database, Submit result: APGzcNhTBbw7r6_Feqmy8zvLsNc- has been uploaded
==== Log checksum 23B456845FF76014831AC2BC94464048D0E05DF2E3F2A86A7EDD267D0B8835B8 ====
 
Содержание индексной карты (.CUE)
REM GENRE Jazz
REM DATE 2008
REM DISCID 4C106707
REM COMMENT "ExactAudioCopy v1.0b3"
PERFORMER "Billy Bang"
TITLE "Prayer for Peace"
FILE "01 - Only Time Will Tell.wav" WAVE
TRACK 01 AUDIO
TITLE "Only Time Will Tell"
PERFORMER "Billy Bang"
INDEX 01 00:00:00
TRACK 02 AUDIO
TITLE "At Play in the Fields of the Lord"
PERFORMER "Billy Bang"
INDEX 00 07:11:59
FILE "02 - At Play in the Fields of the Lord.wav" WAVE
INDEX 01 00:00:00
FILE "03 - Dance of the Manakin.wav" WAVE
TRACK 03 AUDIO
TITLE "Dance of the Manakin"
PERFORMER "Billy Bang"
INDEX 01 00:00:00
TRACK 04 AUDIO
TITLE "Prayer for Peace"
PERFORMER "Billy Bang"
INDEX 00 09:57:53
FILE "04 - Prayer for Peace.wav" WAVE
INDEX 01 00:00:00
TRACK 05 AUDIO
TITLE "Chan Chan"
PERFORMER "Billy Bang"
INDEX 00 19:55:02
FILE "05 - Chan Chan.wav" WAVE
INDEX 01 00:00:00
TRACK 06 AUDIO
TITLE "Dark Silhouette"
PERFORMER "Billy Bang"
INDEX 00 07:02:39
FILE "06 - Dark Silhouette.wav" WAVE
INDEX 01 00:00:00
TRACK 07 AUDIO
TITLE "Jupiter's Future"
PERFORMER "Billy Bang"
INDEX 00 09:36:24
FILE "07 - Jupiter's Future.wav" WAVE
INDEX 01 00:00:00
 
Об альбоме (сборнике)
Prayer for Peace is the first recording by violinist Billy Bang´s regular working quintet of the past five or so years. Featured with Bang are trumpeter James Zollar, pianist Andrew Bemkey, bassist Todd Nicholson and drummer Newman Taylor-Baker.
Billy Bang has long been recognized as a true master on his chosen instrument and as one of the undisputed leaders of his generation of improvising musicians. This recording again demonstrates the reasons for this presenting Bang at his strongest both as a composer and as a featured soloist.
On Prayer for Peace, compositions range from the extended "Prayer for Peace", Bang´s heartfelt plea for peace both among nations and within our own lives, to Stuff Smith´s "Only Time Will Tell" and Bang´s "Jupiter´s Future", paying tribute to Smith and Sun Ra, respectively. Also included are Bang´s composition "At Play in the Fields of the Lord" and the Cuban classic "Chan Chan", featuring two of the leading percussionists on the current New York scene, Milton Cardona and Joe Gonzalez, in a nod to Bang´s own childhood years in Spanish Harlem.
tumrecords.com
 
Состав
Billy Bang violin
James Zollar trumpet and flugelhorn
Andrew Bemkey piano
Todd Nicholson bass
Newman Taylor-Baker drums
Milton Cardona conga, percussion (02 and 05)
Joe Gonzalez bongos, percussion (02 and 05)
Any questions -> support@pro-jazz.com. По всем вопросам пишите -> support@pro-jazz.com
05:10
175
Нет комментариев. Ваш будет первым!