Вы используете незарегистрированную версию компонента "Вкладки"!

Поиск

(Avant-Garde Jazz, Piano Jazz) Craig Taborn - Avenging Angel - Piano Solo - 2011, FLAC (tracks+.cue), lossless

Треклист:
Craig Taborn / Avenging Angel - Piano Solo
Жанр: Avant-Garde Jazz, Piano Jazz
Страна-производитель диска: Germany
Год издания диска: 2011
Издатель (лейбл): ECM
Номер по каталогу: 2207
Страна: Detroit, Michigan, United States
Аудиокодек: FLAC (*.flac)
Тип рипа: tracks+.cue
Битрейт аудио: lossless
Продолжительность: 01:12:07
Источник (релизер): mishka1981
Наличие сканов в содержимом раздачи: да
Треклист:
01. The Broad Day King [06:16]
02. Glossolalia [02:44]
03. Diamond Turning Dream [04:17]
04. Avenging Angel [06:56]
05. This Voice Says So [09:43]
06. Neverland [04:28]
07. True Life Near [04:29]
08. Gift Horse / Over The Water [07:37]
09. A Difficult Thing Said Simply [04:35]
10. Spirit Hard Knock [04:37]
11. Neither-Nor [03:18]
12. Forgetful [07:58]
13. This Is How You Disappear [05:03]
 
Лог создания рипа
Exact Audio Copy V1.0 beta 1 from 15. November 2010
EAC extraction logfile from 10. June 2011, 21:46
Craig Taborn / Avenging Angel
Used drive : TSSTcorpCDDVDW TS-L633A Adapter: 3 ID: 0
Read mode : Secure
Utilize accurate stream : Yes
Defeat audio cache : Yes
Make use of C2 pointers : No
Read offset correction : 6
Overread into Lead-In and Lead-Out : No
Fill up missing offset samples with silence : Yes
Delete leading and trailing silent blocks : No
Null samples used in CRC calculations : Yes
Used interface : Installed external ASPI interface
Gap handling : Appended to previous track
Used output format : User Defined Encoder
Selected bitrate : 896 kBit/s
Quality : High
Add ID3 tag : No
Command line compressor : C:\Program Files\Exact Audio Copy\FLAC\FLAC.EXE
Additional command line options : -8 -V -T "ARTIST=%a" -T "TITLE=%t" -T "ALBUM=%g" -T "DATE=%y" -T "TRACKNUMBER=%n" -T "TOTALTRACKS=%x" -T "GENRE=%m" -T "ALBUMARTIST=%v" -T "ALBUM ARTIST=%v" -T "COMMENT=EAC Secure Mode, Test & Copy, AccurateRip, FLAC -8" %s
TOC of the extracted CD
Track | Start | Length | Start sector | End sector
---------------------------------------------------------
1 | 0:00.00 | 6:16.59 | 0 | 28258
2 | 6:16.59 | 2:44.42 | 28259 | 40600
3 | 9:01.26 | 4:17.09 | 40601 | 59884
4 | 13:18.35 | 6:56.25 | 59885 | 91109
5 | 20:14.60 | 9:43.27 | 91110 | 134861
6 | 29:58.12 | 4:28.45 | 134862 | 155006
7 | 34:26.57 | 4:29.30 | 155007 | 175211
8 | 38:56.12 | 7:37.56 | 175212 | 209542
9 | 46:33.68 | 4:35.51 | 209543 | 230218
10 | 51:09.44 | 4:37.15 | 230219 | 251008
11 | 55:46.59 | 3:18.43 | 251009 | 265901
12 | 59:05.27 | 7:58.19 | 265902 | 301770
13 | 67:03.46 | 5:03.24 | 301771 | 324519
Track 1
Filename C:\MY RIPS\01 - The Broad Day King.wav
Pre-gap length 0:00:02.00
Peak level 89.7 %
Extraction speed 1.3 X
Track quality 100.0 %
Test CRC D062758A
Copy CRC D062758A
Track not present in AccurateRip database
Copy OK
Track 2
Filename C:\MY RIPS\02 - Glossolalia.wav
Peak level 44.1 %
Extraction speed 1.3 X
Track quality 100.0 %
Test CRC B455DF8B
Copy CRC B455DF8B
Track not present in AccurateRip database
Copy OK
Track 3
Filename C:\MY RIPS\03 - Diamond Turning Dream.wav
Peak level 86.2 %
Extraction speed 1.4 X
Track quality 100.0 %
Test CRC 27842D0B
Copy CRC 27842D0B
Track not present in AccurateRip database
Copy OK
Track 4
Filename C:\MY RIPS\04 - Avenging Angel.wav
Peak level 96.6 %
Extraction speed 1.7 X
Track quality 100.0 %
Test CRC A0996195
Copy CRC A0996195
Track not present in AccurateRip database
Copy OK
Track 5
Filename C:\MY RIPS\05 - This Voice Says So.wav
Peak level 96.6 %
Extraction speed 1.9 X
Track quality 100.0 %
Test CRC DCFAD702
Copy CRC DCFAD702
Track not present in AccurateRip database
Copy OK
Track 6
Filename C:\MY RIPS\06 - Neverland.wav
Peak level 57.6 %
Extraction speed 1.9 X
Track quality 100.0 %
Test CRC A2AD1832
Copy CRC A2AD1832
Track not present in AccurateRip database
Copy OK
Track 7
Filename C:\MY RIPS\07 - True Life Near.wav
Peak level 57.0 %
Extraction speed 2.0 X
Track quality 100.0 %
Test CRC 1F39318F
Copy CRC 1F39318F
Track not present in AccurateRip database
Copy OK
Track 8
Filename C:\MY RIPS\08 - Gift Horse , Over The Water.wav
Peak level 96.6 %
Extraction speed 2.2 X
Track quality 100.0 %
Test CRC 83E56DD5
Copy CRC 83E56DD5
Track not present in AccurateRip database
Copy OK
Track 9
Filename C:\MY RIPS\09 - A Difficult Thing Said Simply.wav
Peak level 62.8 %
Extraction speed 2.2 X
Track quality 100.0 %
Test CRC ACF75B9F
Copy CRC ACF75B9F
Track not present in AccurateRip database
Copy OK
Track 10
Filename C:\MY RIPS\10 - Spirit Hard Knock.wav
Peak level 74.9 %
Extraction speed 2.2 X
Track quality 100.0 %
Test CRC DB8E5B40
Copy CRC DB8E5B40
Track not present in AccurateRip database
Copy OK
Track 11
Filename C:\MY RIPS\11 - Neither-Nor.wav
Peak level 77.1 %
Extraction speed 1.3 X
Track quality 99.9 %
Test CRC 95AE7812
Copy CRC 95AE7812
Track not present in AccurateRip database
Copy OK
Track 12
Filename C:\MY RIPS\12 - Forgetful.wav
Peak level 61.7 %
Extraction speed 2.5 X
Track quality 100.0 %
Test CRC 3A7D4179
Copy CRC 3A7D4179
Track not present in AccurateRip database
Copy OK
Track 13
Filename C:\MY RIPS\13 - This Is How You Disappear.wav
Peak level 96.6 %
Extraction speed 2.5 X
Track quality 100.0 %
Test CRC 720A8ED0
Copy CRC 720A8ED0
Track not present in AccurateRip database
Copy OK
None of the tracks are present in the AccurateRip database
No errors occurred
End of status report
==== Log checksum 0F144949ADCB10161FDFA37D77C295EFCBB40DD8F66DCDC024A9D7E159F84C73 ====
 
Содержание индексной карты (.CUE)
REM GENRE Jazz
REM DATE 2011
REM DISCID AD10E60D
REM COMMENT "ExactAudioCopy v1.0b1"
PERFORMER "Craig Taborn"
TITLE "Avenging Angel"
FILE "01 - The Broad Day King.wav" WAVE
TRACK 01 AUDIO
TITLE "The Broad Day King"
PERFORMER "Craig Taborn"
INDEX 01 00:00:00
FILE "02 - Glossolalia.wav" WAVE
TRACK 02 AUDIO
TITLE "Glossolalia"
PERFORMER "Craig Taborn"
INDEX 01 00:00:00
FILE "03 - Diamond Turning Dream.wav" WAVE
TRACK 03 AUDIO
TITLE "Diamond Turning Dream"
PERFORMER "Craig Taborn"
INDEX 01 00:00:00
FILE "04 - Avenging Angel.wav" WAVE
TRACK 04 AUDIO
TITLE "Avenging Angel"
PERFORMER "Craig Taborn"
INDEX 01 00:00:00
FILE "05 - This Voice Says So.wav" WAVE
TRACK 05 AUDIO
TITLE "This Voice Says So"
PERFORMER "Craig Taborn"
INDEX 01 00:00:00
FILE "06 - Neverland.wav" WAVE
TRACK 06 AUDIO
TITLE "Neverland"
PERFORMER "Craig Taborn"
INDEX 01 00:00:00
FILE "07 - True Life Near.wav" WAVE
TRACK 07 AUDIO
TITLE "True Life Near"
PERFORMER "Craig Taborn"
INDEX 01 00:00:00
FILE "08 - Gift Horse , Over The Water.wav" WAVE
TRACK 08 AUDIO
TITLE "Gift Horse / Over The Water"
PERFORMER "Craig Taborn"
INDEX 01 00:00:00
FILE "09 - A Difficult Thing Said Simply.wav" WAVE
TRACK 09 AUDIO
TITLE "A Difficult Thing Said Simply"
PERFORMER "Craig Taborn"
INDEX 01 00:00:00
FILE "10 - Spirit Hard Knock.wav" WAVE
TRACK 10 AUDIO
TITLE "Spirit Hard Knock"
PERFORMER "Craig Taborn"
INDEX 01 00:00:00
FILE "11 - Neither-Nor.wav" WAVE
TRACK 11 AUDIO
TITLE "Neither-Nor"
PERFORMER "Craig Taborn"
INDEX 01 00:00:00
FILE "12 - Forgetful.wav" WAVE
TRACK 12 AUDIO
TITLE "Forgetful"
PERFORMER "Craig Taborn"
INDEX 01 00:00:00
FILE "13 - This Is How You Disappear.wav" WAVE
TRACK 13 AUDIO
TITLE "This Is How You Disappear"
PERFORMER "Craig Taborn"
INDEX 01 00:00:00
Any questions -> support@pro-jazz.com. По всем вопросам пишите -> support@pro-jazz.com
16:03
255
Нет комментариев. Ваш будет первым!