Вы используете незарегистрированную версию компонента "Вкладки"!

Поиск

(Avant-Garde Jazz, Piano Jazz) Anthony Davis - Lady of the Mirrors (1980), 1991, FLAC (tracks+.cue), lossless

(Avant-Garde Jazz, Piano Jazz) Anthony Davis - Lady of the Mirrors (1980), 1991, FLAC (tracks+.cue), lossless
Треклист:
Anthony Davis - Lady of the Mirrors (1980)
Жанр: Avant-Garde Jazz, Piano Jazz
Страна-производитель диска: USA
Год издания диска: 1991
Издатель (лейбл): India Navigation
Номер по каталогу: IN 1047
Аудиокодек: FLAC (*.flac)
Тип рипа: tracks+.cue
Битрейт аудио: lossless
Продолжительность: 00:47:46
Источник (релизер): рип мой, CD тоже.
Наличие сканов в содержимом раздачи: нет
.
Треклист:
01. Beyond Reason (7:29)
02. Lady Of The Mirrors (5:12)
03. Five Moods From An English Garden - For Vasili Kandinsky (9:44)
04. Under The Double Moon (12:17)
05. Man On A Turquoise Cloud - For Edward Kennedy Ellington (6:18)
06. Whose Life (6:46)
.
Состав:
Anthony Davis - piano
 
Лог создания рипа
Exact Audio Copy V1.0 beta 1 from 15. November 2010
EAC extraction logfile from 27. January 2012, 14:19
Anthony Davis / Lady Of The Mirrors
Used drive : SONY DVD RW DRX-S70U Adapter: 1 ID: 0
Read mode : Secure
Utilize accurate stream : Yes
Defeat audio cache : Yes
Make use of C2 pointers : No
Read offset correction : 48
Overread into Lead-In and Lead-Out : No
Fill up missing offset samples with silence : Yes
Delete leading and trailing silent blocks : No
Null samples used in CRC calculations : Yes
Used interface : Native Win32 interface for Win NT & 2000
Gap handling : Appended to previous track
Used output format : User Defined Encoder
Selected bitrate : 256 kBit/s
Quality : High
Add ID3 tag : No
Command line compressor : H:\Program Files\Exact Audio Copy\FLAC\FLAC.EXE
Additional command line options : -8 -V -T "ARTIST=%a" -T "TITLE=%t" -T "ALBUM=%g" -T "DATE=%y" -T "TRACKNUMBER=%n" -T "TOTALTRACKS=%x" -T "GENRE=%m" -T "ALBUMARTIST=%v" -T "ALBUM ARTIST=%v" -T "COMMENT=EAC Secure Mode, Test & Copy, AccurateRip, FLAC -8" %s
TOC of the extracted CD
Track | Start | Length | Start sector | End sector
---------------------------------------------------------
1 | 0:00.00 | 7:28.45 | 0 | 33644
2 | 7:28.45 | 5:12.30 | 33645 | 57074
3 | 12:41.00 | 9:44.00 | 57075 | 100874
4 | 22:25.00 | 12:17.03 | 100875 | 156152
5 | 34:42.03 | 6:17.72 | 156153 | 184499
6 | 41:00.00 | 6:45.58 | 184500 | 214932
Track 1
Filename E:\PMusic\Anthony Davis - Lady of the Mirrors (1980) [FLAC] {India Navigation, IN 1047 CD, USA, 1991}\01 - Beyond Reason.wav
Pre-gap length 0:00:02.00
Peak level 100.0 %
Extraction speed 2.3 X
Track quality 99.9 %
Test CRC E89A68EC
Copy CRC E89A68EC
Accurately ripped (confidence 4) [C188D795]
Copy OK
Track 2
Filename E:\PMusic\Anthony Davis - Lady of the Mirrors (1980) [FLAC] {India Navigation, IN 1047 CD, USA, 1991}\02 - Lady Of The Mirrors.wav
Pre-gap length 0:00:01.45
Peak level 95.7 %
Extraction speed 3.3 X
Track quality 100.0 %
Test CRC 1D941B15
Copy CRC 1D941B15
Accurately ripped (confidence 4) [42122046]
Copy OK
Track 3
Filename E:\PMusic\Anthony Davis - Lady of the Mirrors (1980) [FLAC] {India Navigation, IN 1047 CD, USA, 1991}\03 - Five Moods From An English Garden - For Vasili Kandinsky.wav
Pre-gap length 0:00:01.37
Peak level 94.0 %
Extraction speed 3.9 X
Track quality 100.0 %
Test CRC BB7E72A8
Copy CRC BB7E72A8
Accurately ripped (confidence 4) [EF476803]
Copy OK
Track 4
Filename E:\PMusic\Anthony Davis - Lady of the Mirrors (1980) [FLAC] {India Navigation, IN 1047 CD, USA, 1991}\04 - Under The Double Moon.wav
Pre-gap length 0:00:00.67
Peak level 98.2 %
Extraction speed 4.5 X
Track quality 100.0 %
Test CRC D135AF91
Copy CRC D135AF91
Accurately ripped (confidence 3) [BEC34001]
Copy OK
Track 5
Filename E:\PMusic\Anthony Davis - Lady of the Mirrors (1980) [FLAC] {India Navigation, IN 1047 CD, USA, 1991}\05 - Man On A Turquoise Cloud - For Edward Kennedy Ellington.wav
Pre-gap length 0:00:01.63
Peak level 92.4 %
Extraction speed 4.7 X
Track quality 100.0 %
Test CRC 6F04110B
Copy CRC 6F04110B
Accurately ripped (confidence 4) [8650C2AF]
Copy OK
Track 6
Filename E:\PMusic\Anthony Davis - Lady of the Mirrors (1980) [FLAC] {India Navigation, IN 1047 CD, USA, 1991}\06 - Whose Life.wav
Pre-gap length 0:00:01.30
Peak level 89.7 %
Extraction speed 4.4 X
Track quality 99.9 %
Test CRC 51246329
Copy CRC 51246329
Accurately ripped (confidence 4) [EBEA9A47]
Copy OK
All tracks accurately ripped
No errors occurred
End of status report
==== Log checksum AF1A8EEC993BDF11736E49A09F976802822D4A53F9756C4D849AAB4BA835F8A5 ====
 
Содержание индексной карты (.CUE)
REM GENRE Jazz
REM DATE 1980
REM DISCID 460B3106
REM COMMENT "ExactAudioCopy v1.0b1"
PERFORMER "Anthony Davis"
TITLE "Lady Of The Mirrors"
FILE "01 - Beyond Reason.wav" WAVE
TRACK 01 AUDIO
TITLE "Beyond Reason"
PERFORMER "Anthony Davis"
INDEX 01 00:00:00
TRACK 02 AUDIO
TITLE "Lady Of The Mirrors"
PERFORMER "Anthony Davis"
INDEX 00 07:27:00
FILE "02 - Lady Of The Mirrors.wav" WAVE
INDEX 01 00:00:00
TRACK 03 AUDIO
TITLE "Five Moods From An English Garden - For Vasili Kandinsky"
PERFORMER "Anthony Davis"
INDEX 00 05:10:68
FILE "03 - Five Moods From An English Garden - For Vasili Kandinsky.wav" WAVE
INDEX 01 00:00:00
TRACK 04 AUDIO
TITLE "Under The Double Moon"
PERFORMER "Anthony Davis"
INDEX 00 09:43:08
FILE "04 - Under The Double Moon.wav" WAVE
INDEX 01 00:00:00
TRACK 05 AUDIO
TITLE "Man On A Turquoise Cloud - For Edward Kennedy Ellington"
PERFORMER "Anthony Davis"
INDEX 00 12:15:15
FILE "05 - Man On A Turquoise Cloud - For Edward Kennedy Ellington.wav" WAVE
INDEX 01 00:00:00
TRACK 06 AUDIO
TITLE "Whose Life"
PERFORMER "Anthony Davis"
INDEX 00 06:16:42
FILE "06 - Whose Life.wav" WAVE
INDEX 01 00:00:00
 
CD
Any questions - support@pro-jazz.com. Есть вопросы - support@pro-jazz.com
21:31
211
Нет комментариев. Ваш будет первым!