Вы используете незарегистрированную версию компонента "Вкладки"!

Поиск

(Avant-Garde Jazz) Pharoah Sanders (Don Cherry Quintet, Pharoah Sanders Quintet, Sun Ra & His Solar Arkestra, Paul Bley Quartet) - In the Beginning 1963-1964 - 2012, FLAC (tracks+.cue), lossless

(Avant-Garde Jazz) Pharoah Sanders (Don Cherry Quintet, Pharoah Sanders Quintet, Sun Ra & His Solar Arkestra, Paul Bley Quartet) - In the Beginning 1963-1964 - 2012, FLAC (tracks+.cue), lossless
Треклист:
In the Beginning 1963-1964
Жанр: Avant-Garde Jazz
Год издания: 2012
Издатель (лейбл): ESP-Disk
Номер по каталогу: ESP 4069
Аудиокодек: FLAC (*.flac)
Тип рипа: tracks+.cue
Битрейт аудио: lossless
Продолжительность: 217min46sec
Источник (релизер): what.cd (MimiSoul)
Наличие сканов в содержимом раздачи: нет
Треклист:
 
Disc One - The Don Cherry Quintet (1-3-63) & The Paul Bley Quartet (5-25-64)
01. Pharoah Sanders Interview - Coming To NY
02. Cocktail Piece (first var.) take 1
03. Cocktail Piece (first var.) take 2
04. Studio Engineer Announcement
05. Cherry's Dilemma
06. Studio Engineer Announcement
07. Rememberance (first var.)
08. Medley: Thelonious Monk Compositions
09. Don Cherry Interview - Ornette's Influence Pt.1
10. Don Cherry Interview - Ornette's Influence Pt.2
11. Paul Bley Interview - 1960s Avant Garde
12. Generous 1 take 1 (Setting Levels)
13. Generous 1 take 2
14. Walking Woman take 1
15. Walking Woman take 2
16. Ictus
17. Note: After Session Conversation
 
Disc Two - The Pharoah Sanders Quintet (9-27-64)
01. Pharoah Sanders Interview - Musician he Performed With Pt.1
02. Bernard Stollman Interview - Meeting Pharoah Sanders
03. Seven by Seven
04. Bethera
05. Pharoah Sanders Interview - Musician he Performed With Pt.2
 
Disc Three - Sun Ra & His Solar Arkestra - Live At Judson Hall, New York (12-30-64)
01. Pharoah Sanders Interview - Meeting Sun Ra
02. Dawn Over Israel
03. The Shadow World
04. The Second Stop Is Jupiter
05. Discipline #9
06. We Travel The Spaceways
 
Disc Four - Sun Ra & His Solar Arkestra - Live At Judson Hall, New York (12-31-64)
01. Sun Ra Interview - Being Neglected as an Artist
02. Gods on Safari
03. The Shadow World
04. Rocket #9
05. The Voice of Pan Pt. 1
06. Dawn Over Israel
07. Space Mates
08. The Voice of Pan Pt. 2
09. The Talking Drum
10. Conversation With Saturn
11. The Next Stop Mars
12. The Second Stop is Jupiter
13. Pathway to the Outer Known
14. Sun Ra Interview - Meeting John Coltrane
15. Pharoah Sanders Interview - John Coltrane
16. Pharoah Sanders Interview - Playing at Slug's/Max Gordon
17. Pharoah Sanders Interview - Closing Comments
 
Лог создания рипа
 
cd1
Exact Audio Copy V1.0 beta 3 from 29. August 2011
EAC extraction logfile from 11. August 2012, 15:56
Pharoah Sanders / In The Beginning Disc #1
Used drive : MATSHITADVD-RAM UJ-850S Adapter: 0 ID: 0
Read mode : Secure
Utilize accurate stream : Yes
Defeat audio cache : Yes
Make use of C2 pointers : No
Read offset correction : 102
Overread into Lead-In and Lead-Out : No
Fill up missing offset samples with silence : Yes
Delete leading and trailing silent blocks : No
Null samples used in CRC calculations : Yes
Used interface : Native Win32 interface for Win NT & 2000
Gap handling : Appended to previous track
Used output format : User Defined Encoder
Selected bitrate : 1024 kBit/s
Quality : High
Add ID3 tag : No
Command line compressor : C:\Program Files\Exact Audio Copy\Flac\flac.exe
Additional command line options : -8 -V -T "ARTIST=%artist%" -T "TITLE=%title%" -T "ALBUM=%albumtitle%" -T "DATE=%year%" -T "TRACKNUMBER=%tracknr%" -T "GENRE=%genre%" -T "PERFORMER=%albuminterpret%" -T "COMPOSER=%composer%" %haslyrics%--tag-from-file=LYRICS="%lyricsfile%"%haslyrics% -T "ALBUMARTIST=%albumartist%" -T "DISCNUMBER=%cdnumber%" -T "TOTALDISCS=%totalcds%" -T "TOTALTRACKS=%numtracks%" -T "COMMENT=%comment%" %source% -o %dest%
TOC of the extracted CD
Track | Start | Length | Start sector | End sector
---------------------------------------------------------
1 | 0:00.00 | 3:06.47 | 0 | 13996
2 | 3:06.47 | 4:03.56 | 13997 | 32277
3 | 7:10.28 | 6:00.22 | 32278 | 59299
4 | 13:10.50 | 0:08.72 | 59300 | 59971
5 | 13:19.47 | 4:13.17 | 59972 | 78963
6 | 17:32.64 | 0:18.14 | 78964 | 80327
7 | 17:51.03 | 5:26.64 | 80328 | 104841
8 | 23:17.67 | 4:05.09 | 104842 | 123225
9 | 27:23.01 | 3:19.13 | 123226 | 138163
10 | 30:42.14 | 1:01.29 | 138164 | 142767
11 | 31:43.43 | 2:25.63 | 142768 | 153705
12 | 34:09.31 | 4:35.63 | 153706 | 174393
13 | 38:45.19 | 4:21.02 | 174394 | 193970
14 | 43:06.21 | 2:04.66 | 193971 | 203336
15 | 45:11.12 | 3:05.16 | 203337 | 217227
16 | 48:16.28 | 4:21.25 | 217228 | 236827
17 | 52:37.53 | 0:37.28 | 236828 | 239630
Track 1
Filename F:\[UPLOADS]\Pharoah Sanders - In The Beginning 1963-1964 (2012) [FLAC]\Disc #1 - The Don Cherry Quintet (1-3-63) & The Paul Bley Quartet (5-25-64)\01 Pharoah Sanders Interview - Coming To New York.wav
Pre-gap length 0:00:02.00
Peak level 88.1 %
Extraction speed 1.3 X
Track quality 100.0 %
Test CRC 28F8EE13
Copy CRC 28F8EE13
Track not present in AccurateRip database
Copy OK
Track 2
Filename F:\[UPLOADS]\Pharoah Sanders - In The Beginning 1963-1964 (2012) [FLAC]\Disc #1 - The Don Cherry Quintet (1-3-63) & The Paul Bley Quartet (5-25-64)\02 The Don Cherry Quintet - Cocktail Piece (first variation) take 1.wav
Peak level 68.6 %
Extraction speed 1.6 X
Track quality 100.0 %
Test CRC 8831F583
Copy CRC 8831F583
Track not present in AccurateRip database
Copy OK
Track 3
Filename F:\[UPLOADS]\Pharoah Sanders - In The Beginning 1963-1964 (2012) [FLAC]\Disc #1 - The Don Cherry Quintet (1-3-63) & The Paul Bley Quartet (5-25-64)\03 The Don Cherry Quintet - Cocktail Piece (first variation) take 2.wav
Peak level 82.8 %
Extraction speed 1.8 X
Track quality 100.0 %
Test CRC ECA3B264
Copy CRC ECA3B264
Track not present in AccurateRip database
Copy OK
Track 4
Filename F:\[UPLOADS]\Pharoah Sanders - In The Beginning 1963-1964 (2012) [FLAC]\Disc #1 - The Don Cherry Quintet (1-3-63) & The Paul Bley Quartet (5-25-64)\04 Studio Engineer Announcement.wav
Peak level 47.4 %
Extraction speed 0.2 X
Track quality 98.7 %
Test CRC AF6CF1F5
Copy CRC AF6CF1F5
Track not present in AccurateRip database
Copy OK
Track 5
Filename F:\[UPLOADS]\Pharoah Sanders - In The Beginning 1963-1964 (2012) [FLAC]\Disc #1 - The Don Cherry Quintet (1-3-63) & The Paul Bley Quartet (5-25-64)\05 The Don Cherry Quintet - Cherry's Dilemma.wav
Peak level 83.3 %
Extraction speed 1.9 X
Track quality 100.0 %
Test CRC 44D9BDCD
Copy CRC 44D9BDCD
Track not present in AccurateRip database
Copy OK
Track 6
Filename F:\[UPLOADS]\Pharoah Sanders - In The Beginning 1963-1964 (2012) [FLAC]\Disc #1 - The Don Cherry Quintet (1-3-63) & The Paul Bley Quartet (5-25-64)\06 Studio Engineer Annoucement.wav
Peak level 35.7 %
Extraction speed 0.7 X
Track quality 100.0 %
Test CRC 72368E01
Copy CRC 72368E01
Track not present in AccurateRip database
Copy OK
Track 7
Filename F:\[UPLOADS]\Pharoah Sanders - In The Beginning 1963-1964 (2012) [FLAC]\Disc #1 - The Don Cherry Quintet (1-3-63) & The Paul Bley Quartet (5-25-64)\07 The Don Cherry Quintet - Remembrance (first variation).wav
Peak level 67.9 %
Extraction speed 2.1 X
Track quality 100.0 %
Test CRC 18016ED4
Copy CRC 18016ED4
Track not present in AccurateRip database
Copy OK
Track 8
Filename F:\[UPLOADS]\Pharoah Sanders - In The Beginning 1963-1964 (2012) [FLAC]\Disc #1 - The Don Cherry Quintet (1-3-63) & The Paul Bley Quartet (5-25-64)\08 The Don Cherry Quintet - Medley Thelonious Monk Compositions.wav
Peak level 71.1 %
Extraction speed 2.2 X
Track quality 100.0 %
Test CRC EDE85253
Copy CRC EDE85253
Track not present in AccurateRip database
Copy OK
Track 9
Filename F:\[UPLOADS]\Pharoah Sanders - In The Beginning 1963-1964 (2012) [FLAC]\Disc #1 - The Don Cherry Quintet (1-3-63) & The Paul Bley Quartet (5-25-64)\09 Don Cherry Interview - Ornette's Influence Pt. 1.wav
Peak level 98.8 %
Extraction speed 1.9 X
Track quality 99.9 %
Test CRC D59BBE13
Copy CRC D59BBE13
Track not present in AccurateRip database
Copy OK
Track 10
Filename F:\[UPLOADS]\Pharoah Sanders - In The Beginning 1963-1964 (2012) [FLAC]\Disc #1 - The Don Cherry Quintet (1-3-63) & The Paul Bley Quartet (5-25-64)\10 Don Cherry Interview - Ornette's Influence Pt. 2.wav
Peak level 98.8 %
Extraction speed 1.2 X
Track quality 99.8 %
Test CRC FA540134
Copy CRC FA540134
Track not present in AccurateRip database
Copy OK
Track 11
Filename F:\[UPLOADS]\Pharoah Sanders - In The Beginning 1963-1964 (2012) [FLAC]\Disc #1 - The Don Cherry Quintet (1-3-63) & The Paul Bley Quartet (5-25-64)\11 Paul Bley Interview - 1960's Avant Garde.wav
Peak level 98.8 %
Extraction speed 2.2 X
Track quality 100.0 %
Test CRC 550C0CC5
Copy CRC 550C0CC5
Track not present in AccurateRip database
Copy OK
Track 12
Filename F:\[UPLOADS]\Pharoah Sanders - In The Beginning 1963-1964 (2012) [FLAC]\Disc #1 - The Don Cherry Quintet (1-3-63) & The Paul Bley Quartet (5-25-64)\12 The Paul Bley Quartet - Generous 1 take 1 (setting levels).wav
Peak level 80.5 %
Extraction speed 2.5 X
Track quality 100.0 %
Test CRC CE764369
Copy CRC CE764369
Track not present in AccurateRip database
Copy OK
Track 13
Filename F:\[UPLOADS]\Pharoah Sanders - In The Beginning 1963-1964 (2012) [FLAC]\Disc #1 - The Don Cherry Quintet (1-3-63) & The Paul Bley Quartet (5-25-64)\13 The Paul Bley Quartet - Generous 1 take 2.wav
Peak level 96.0 %
Extraction speed 2.6 X
Track quality 100.0 %
Test CRC 1ED17C2E
Copy CRC 1ED17C2E
Track not present in AccurateRip database
Copy OK
Track 14
Filename F:\[UPLOADS]\Pharoah Sanders - In The Beginning 1963-1964 (2012) [FLAC]\Disc #1 - The Don Cherry Quintet (1-3-63) & The Paul Bley Quartet (5-25-64)\14 The Paul Bley Quartet - Walking Woman take 1.wav
Peak level 89.8 %
Extraction speed 2.4 X
Track quality 100.0 %
Test CRC EB2B3AEC
Copy CRC EB2B3AEC
Track not present in AccurateRip database
Copy OK
Track 15
Filename F:\[UPLOADS]\Pharoah Sanders - In The Beginning 1963-1964 (2012) [FLAC]\Disc #1 - The Don Cherry Quintet (1-3-63) & The Paul Bley Quartet (5-25-64)\15 The Paul Bley Quartet - Walking Woman take 2.wav
Peak level 92.3 %
Extraction speed 1.1 X
Track quality 100.0 %
Test CRC F9F833A6
Copy CRC F9F833A6
Track not present in AccurateRip database
Copy OK
Track 16
Filename F:\[UPLOADS]\Pharoah Sanders - In The Beginning 1963-1964 (2012) [FLAC]\Disc #1 - The Don Cherry Quintet (1-3-63) & The Paul Bley Quartet (5-25-64)\16 The Paul Bley Quartet - Ictus.wav
Peak level 96.4 %
Extraction speed 0.5 X
Track quality 99.8 %
Test CRC 391E0953
Copy CRC 391E0953
Track not present in AccurateRip database
Copy OK
Track 17
Filename F:\[UPLOADS]\Pharoah Sanders - In The Beginning 1963-1964 (2012) [FLAC]\Disc #1 - The Don Cherry Quintet (1-3-63) & The Paul Bley Quartet (5-25-64)\17 Note After Session Conversation.wav
Peak level 33.1 %
Extraction speed 0.5 X
Track quality 100.0 %
Test CRC 12FE18F6
Copy CRC 12FE18F6
Track not present in AccurateRip database
Copy OK
None of the tracks are present in the AccurateRip database
No errors occurred
End of status report
---- CUETools DB Plugin V2.1.3
[CTDB TOCID: JpSj4ZSti9ijLDbxxdxXl26CQWI-] disk not present in database, Submit result: JpSj4ZSti9ijLDbxxdxXl26CQWI- has been uploaded
==== Log checksum 2B7B24D81A476A2444B5BB0E04F9AF107EBDCE1DB3ABE72E46416E4C07A762A6 ====
 
cd2
Exact Audio Copy V1.0 beta 3 from 29. August 2011
EAC extraction logfile from 11. August 2012, 14:38
Pharoah Sanders / In The Beginning Disc #2
Used drive : MATSHITADVD-RAM UJ-850S Adapter: 0 ID: 0
Read mode : Secure
Utilize accurate stream : Yes
Defeat audio cache : Yes
Make use of C2 pointers : No
Read offset correction : 102
Overread into Lead-In and Lead-Out : No
Fill up missing offset samples with silence : Yes
Delete leading and trailing silent blocks : No
Null samples used in CRC calculations : Yes
Used interface : Native Win32 interface for Win NT & 2000
Gap handling : Appended to previous track
Used output format : User Defined Encoder
Selected bitrate : 1024 kBit/s
Quality : High
Add ID3 tag : No
Command line compressor : C:\Program Files\Exact Audio Copy\Flac\flac.exe
Additional command line options : -8 -V -T "ARTIST=%artist%" -T "TITLE=%title%" -T "ALBUM=%albumtitle%" -T "DATE=%year%" -T "TRACKNUMBER=%tracknr%" -T "GENRE=%genre%" -T "PERFORMER=%albuminterpret%" -T "COMPOSER=%composer%" %haslyrics%--tag-from-file=LYRICS="%lyricsfile%"%haslyrics% -T "ALBUMARTIST=%albumartist%" -T "DISCNUMBER=%cdnumber%" -T "TOTALDISCS=%totalcds%" -T "TOTALTRACKS=%numtracks%" -T "COMMENT=%comment%" %source% -o %dest%
TOC of the extracted CD
Track | Start | Length | Start sector | End sector
---------------------------------------------------------
1 | 0:00.00 | 2:08.25 | 0 | 9624
2 | 2:08.25 | 0:54.45 | 9625 | 13719
3 | 3:02.70 | 26:07.65 | 13720 | 131309
4 | 29:10.60 | 23:31.05 | 131310 | 237139
5 | 52:41.65 | 4:35.67 | 237140 | 257831
Track 1
Filename F:\[UPLOADS]\Pharoah Sanders - In The Beginning 1963-1964 (2012) [FLAC]\Disc #2 - The Pharoah Sanders Quintet (9-27-64)\01 Pharoah Sanders Interview - Musician He Performed With Pt. 1.wav
Pre-gap length 0:00:02.00
Peak level 57.2 %
Extraction speed 1.2 X
Track quality 100.0 %
Test CRC 740B2374
Copy CRC 740B2374
Track not present in AccurateRip database
Copy OK
Track 2
Filename F:\[UPLOADS]\Pharoah Sanders - In The Beginning 1963-1964 (2012) [FLAC]\Disc #2 - The Pharoah Sanders Quintet (9-27-64)\02 Bernard Stollman Interview - Meeting Pharoah Sanders.wav
Peak level 51.7 %
Extraction speed 0.9 X
Track quality 100.0 %
Test CRC 36660F5F
Copy CRC 36660F5F
Track not present in AccurateRip database
Copy OK
Track 3
Filename F:\[UPLOADS]\Pharoah Sanders - In The Beginning 1963-1964 (2012) [FLAC]\Disc #2 - The Pharoah Sanders Quintet (9-27-64)\03 Pharoah Sanders Quintet - Seven By Seven.wav
Peak level 62.8 %
Extraction speed 2.1 X
Track quality 100.0 %
Test CRC 6A112416
Copy CRC 6A112416
Track not present in AccurateRip database
Copy OK
Track 4
Filename F:\[UPLOADS]\Pharoah Sanders - In The Beginning 1963-1964 (2012) [FLAC]\Disc #2 - The Pharoah Sanders Quintet (9-27-64)\04 Pharoah Sanders Quintet - Bethera.wav
Peak level 65.9 %
Extraction speed 2.9 X
Track quality 100.0 %
Test CRC CDEB1934
Copy CRC CDEB1934
Track not present in AccurateRip database
Copy OK
Track 5
Filename F:\[UPLOADS]\Pharoah Sanders - In The Beginning 1963-1964 (2012) [FLAC]\Disc #2 - The Pharoah Sanders Quintet (9-27-64)\05 Pharoah Sanders Interview - Musicians He Performed With Pt. 2.wav
Peak level 61.6 %
Extraction speed 2.6 X
Track quality 99.9 %
Test CRC 54F3962B
Copy CRC 54F3962B
Track not present in AccurateRip database
Copy OK
None of the tracks are present in the AccurateRip database
No errors occurred
End of status report
---- CUETools DB Plugin V2.1.3
[CTDB TOCID: j7KvrKWrWbI4a0s54x1zkDCa5vw-] disk not present in database, Submit result: j7KvrKWrWbI4a0s54x1zkDCa5vw- has been uploaded
==== Log checksum CFCBCA643C688D56AADF1262DDFC7FC56F91B72140F19A37DFA70E538D692605 ====
 
cd3
Exact Audio Copy V1.0 beta 3 from 29. August 2011
EAC extraction logfile from 11. August 2012, 12:28
Pharoah Sanders / In The Beginning Disc #3
Used drive : MATSHITADVD-RAM UJ-850S Adapter: 0 ID: 0
Read mode : Secure
Utilize accurate stream : Yes
Defeat audio cache : Yes
Make use of C2 pointers : No
Read offset correction : 102
Overread into Lead-In and Lead-Out : No
Fill up missing offset samples with silence : Yes
Delete leading and trailing silent blocks : No
Null samples used in CRC calculations : Yes
Used interface : Native Win32 interface for Win NT & 2000
Gap handling : Appended to previous track
Used output format : User Defined Encoder
Selected bitrate : 1024 kBit/s
Quality : High
Add ID3 tag : No
Command line compressor : C:\Program Files\Exact Audio Copy\Flac\flac.exe
Additional command line options : -8 -V -T "ARTIST=%artist%" -T "TITLE=%title%" -T "ALBUM=%albumtitle%" -T "DATE=%year%" -T "TRACKNUMBER=%tracknr%" -T "GENRE=%genre%" -T "PERFORMER=%albuminterpret%" -T "COMPOSER=%composer%" %haslyrics%--tag-from-file=LYRICS="%lyricsfile%"%haslyrics% -T "ALBUMARTIST=%albumartist%" -T "DISCNUMBER=%cdnumber%" -T "TOTALDISCS=%totalcds%" -T "TOTALTRACKS=%numtracks%" -T "COMMENT=%comment%" %source% -o %dest%
TOC of the extracted CD
Track | Start | Length | Start sector | End sector
---------------------------------------------------------
1 | 0:00.00 | 1:44.07 | 0 | 7806
2 | 1:44.07 | 10:00.38 | 7807 | 52844
3 | 11:44.45 | 22:08.32 | 52845 | 152476
4 | 33:53.02 | 2:17.43 | 152477 | 162794
5 | 36:10.45 | 2:27.35 | 162795 | 173854
6 | 38:38.05 | 9:10.41 | 173855 | 215145
Track 1
Filename F:\[UPLOADS]\Pharoah Sanders - In The Beginning 1963-1964 (2012) [FLAC]\Disc #3 - Sun Ra & His Solar Arkestra Live at Judson Hall New York (12-30-64)\01 Pharoah Sanders Interview - Meeting Sun Ra.wav
Pre-gap length 0:00:02.00
Peak level 43.6 %
Extraction speed 1.1 X
Track quality 100.0 %
Test CRC FDD05C41
Copy CRC FDD05C41
Track not present in AccurateRip database
Copy OK
Track 2
Filename F:\[UPLOADS]\Pharoah Sanders - In The Beginning 1963-1964 (2012) [FLAC]\Disc #3 - Sun Ra & His Solar Arkestra Live at Judson Hall New York (12-30-64)\02 Sun Ra Arkestra - Dawn Over Israel.wav
Peak level 56.9 %
Extraction speed 1.7 X
Track quality 100.0 %
Test CRC 72DCED1D
Copy CRC 72DCED1D
Track not present in AccurateRip database
Copy OK
Track 3
Filename F:\[UPLOADS]\Pharoah Sanders - In The Beginning 1963-1964 (2012) [FLAC]\Disc #3 - Sun Ra & His Solar Arkestra Live at Judson Hall New York (12-30-64)\03 Sun Ra Arkestra - The Shadow World.wav
Peak level 71.3 %
Extraction speed 2.4 X
Track quality 100.0 %
Test CRC F1E3DB4B
Copy CRC F1E3DB4B
Track not present in AccurateRip database
Copy OK
Track 4
Filename F:\[UPLOADS]\Pharoah Sanders - In The Beginning 1963-1964 (2012) [FLAC]\Disc #3 - Sun Ra & His Solar Arkestra Live at Judson Hall New York (12-30-64)\04 Sun Ra Arkestra - The Second Stop Is Jupiter.wav
Peak level 64.6 %
Extraction speed 2.2 X
Track quality 100.0 %
Test CRC 5820E881
Copy CRC 5820E881
Track not present in AccurateRip database
Copy OK
Track 5
Filename F:\[UPLOADS]\Pharoah Sanders - In The Beginning 1963-1964 (2012) [FLAC]\Disc #3 - Sun Ra & His Solar Arkestra Live at Judson Hall New York (12-30-64)\05 Sun Ra Arkestra - Discipline #9.wav
Peak level 44.6 %
Extraction speed 2.3 X
Track quality 100.0 %
Test CRC 4152A9FF
Copy CRC 4152A9FF
Track not present in AccurateRip database
Copy OK
Track 6
Filename F:\[UPLOADS]\Pharoah Sanders - In The Beginning 1963-1964 (2012) [FLAC]\Disc #3 - Sun Ra & His Solar Arkestra Live at Judson Hall New York (12-30-64)\06 Sun Ra Arkestra - We Travel The Spaceways.wav
Peak level 100.0 %
Extraction speed 2.8 X
Track quality 100.0 %
Test CRC 11853B4C
Copy CRC 11853B4C
Track not present in AccurateRip database
Copy OK
None of the tracks are present in the AccurateRip database
No errors occurred
End of status report
---- CUETools DB Plugin V2.1.3
[CTDB TOCID: 69E7Dz.eWai8SKEQcbywbzdpdik-] disk not present in database, Submit result: 69E7Dz.eWai8SKEQcbywbzdpdik- has been uploaded
==== Log checksum 10E576D560CD87AB25223799AC01B4A75751D216925E159096FA7C2F4E2E54BF ====
 
cd4
Exact Audio Copy V1.0 beta 3 from 29. August 2011
EAC extraction logfile from 11. August 2012, 13:40
Pharoah Sanders / In The Beginning Disc #4
Used drive : MATSHITADVD-RAM UJ-850S Adapter: 0 ID: 0
Read mode : Secure
Utilize accurate stream : Yes
Defeat audio cache : Yes
Make use of C2 pointers : No
Read offset correction : 102
Overread into Lead-In and Lead-Out : No
Fill up missing offset samples with silence : Yes
Delete leading and trailing silent blocks : No
Null samples used in CRC calculations : Yes
Used interface : Native Win32 interface for Win NT & 2000
Gap handling : Appended to previous track
Used output format : User Defined Encoder
Selected bitrate : 1024 kBit/s
Quality : High
Add ID3 tag : No
Command line compressor : C:\Program Files\Exact Audio Copy\Flac\flac.exe
Additional command line options : -8 -V -T "ARTIST=%artist%" -T "TITLE=%title%" -T "ALBUM=%albumtitle%" -T "DATE=%year%" -T "TRACKNUMBER=%tracknr%" -T "GENRE=%genre%" -T "PERFORMER=%albuminterpret%" -T "COMPOSER=%composer%" %haslyrics%--tag-from-file=LYRICS="%lyricsfile%"%haslyrics% -T "ALBUMARTIST=%albumartist%" -T "DISCNUMBER=%cdnumber%" -T "TOTALDISCS=%totalcds%" -T "TOTALTRACKS=%numtracks%" -T "COMMENT=%comment%" %source% -o %dest%
TOC of the extracted CD
Track | Start | Length | Start sector | End sector
---------------------------------------------------------
1 | 0:00.00 | 2:49.29 | 0 | 12703
2 | 2:49.29 | 3:43.32 | 12704 | 29460
3 | 6:32.61 | 6:26.66 | 29461 | 58476
4 | 12:59.52 | 3:58.50 | 58477 | 76376
5 | 16:58.27 | 5:23.30 | 76377 | 100631
6 | 22:21.57 | 3:42.54 | 100632 | 117335
7 | 26:04.36 | 2:42.34 | 117336 | 129519
8 | 28:46.70 | 8:02.72 | 129520 | 165741
9 | 36:49.67 | 4:16.48 | 165742 | 184989
10 | 41:06.40 | 3:51.44 | 184990 | 202358
11 | 44:58.09 | 0:48.45 | 202359 | 206003
12 | 45:46.54 | 2:13.63 | 206004 | 216041
13 | 48:00.42 | 3:36.29 | 216042 | 232270
14 | 51:36.71 | 1:04.05 | 232271 | 237075
15 | 52:41.01 | 3:26.61 | 237076 | 252586
16 | 56:07.62 | 1:05.74 | 252587 | 257535
17 | 57:13.61 | 2:34.38 | 257536 | 269123
Track 1
Filename F:\[UPLOADS]\Pharoah Sanders - In The Beginning 1963-1964 (2012) [FLAC]\Disc #4 - Sun Ra & His Solar Arkestra Live at Judson Hall New York (12-31-64)\01 Sun Ra Interview - Being Neglected As An Artist.wav
Pre-gap length 0:00:02.00
Peak level 94.2 %
Extraction speed 1.3 X
Track quality 100.0 %
Test CRC D33E9202
Copy CRC D33E9202
Track not present in AccurateRip database
Copy OK
Track 2
Filename F:\[UPLOADS]\Pharoah Sanders - In The Beginning 1963-1964 (2012) [FLAC]\Disc #4 - Sun Ra & His Solar Arkestra Live at Judson Hall New York (12-31-64)\02 Sun Ra Arkestra - Gods On Safari.wav
Peak level 91.7 %
Extraction speed 1.3 X
Track quality 99.9 %
Test CRC 5DC15130
Copy CRC 5DC15130
Track not present in AccurateRip database
Copy OK
Track 3
Filename F:\[UPLOADS]\Pharoah Sanders - In The Beginning 1963-1964 (2012) [FLAC]\Disc #4 - Sun Ra & His Solar Arkestra Live at Judson Hall New York (12-31-64)\03 Sun Ra Arkestra - The Shadow World.wav
Peak level 94.2 %
Extraction speed 1.8 X
Track quality 100.0 %
Test CRC FD127B2D
Copy CRC FD127B2D
Track not present in AccurateRip database
Copy OK
Track 4
Filename F:\[UPLOADS]\Pharoah Sanders - In The Beginning 1963-1964 (2012) [FLAC]\Disc #4 - Sun Ra & His Solar Arkestra Live at Judson Hall New York (12-31-64)\04 Sun Ra Arkestra - Rocket #9.wav
Peak level 94.2 %
Extraction speed 1.9 X
Track quality 100.0 %
Test CRC 177A01E1
Copy CRC 177A01E1
Track not present in AccurateRip database
Copy OK
Track 5
Filename F:\[UPLOADS]\Pharoah Sanders - In The Beginning 1963-1964 (2012) [FLAC]\Disc #4 - Sun Ra & His Solar Arkestra Live at Judson Hall New York (12-31-64)\05 Sun Ra Arkestra - The Voice Of Pan Pt. 1.wav
Peak level 94.2 %
Extraction speed 2.1 X
Track quality 100.0 %
Test CRC AA9EA85E
Copy CRC AA9EA85E
Track not present in AccurateRip database
Copy OK
Track 6
Filename F:\[UPLOADS]\Pharoah Sanders - In The Beginning 1963-1964 (2012) [FLAC]\Disc #4 - Sun Ra & His Solar Arkestra Live at Judson Hall New York (12-31-64)\06 Sun Ra Arkestra - Dawn Over Israel.wav
Peak level 76.4 %
Extraction speed 2.1 X
Track quality 100.0 %
Test CRC 04B39088
Copy CRC 04B39088
Track not present in AccurateRip database
Copy OK
Track 7
Filename F:\[UPLOADS]\Pharoah Sanders - In The Beginning 1963-1964 (2012) [FLAC]\Disc #4 - Sun Ra & His Solar Arkestra Live at Judson Hall New York (12-31-64)\07 Sun Ra Arkestra - Space Mates.wav
Peak level 54.8 %
Extraction speed 2.1 X
Track quality 100.0 %
Test CRC BB305F7C
Copy CRC BB305F7C
Track not present in AccurateRip database
Copy OK
Track 8
Filename F:\[UPLOADS]\Pharoah Sanders - In The Beginning 1963-1964 (2012) [FLAC]\Disc #4 - Sun Ra & His Solar Arkestra Live at Judson Hall New York (12-31-64)\08 Sun Ra Arkestra - The Voice Of Pan Pt. 2.wav
Peak level 78.0 %
Extraction speed 2.5 X
Track quality 100.0 %
Test CRC 10141C98
Copy CRC 10141C98
Track not present in AccurateRip database
Copy OK
Track 9
Filename F:\[UPLOADS]\Pharoah Sanders - In The Beginning 1963-1964 (2012) [FLAC]\Disc #4 - Sun Ra & His Solar Arkestra Live at Judson Hall New York (12-31-64)\09 Sun Ra Arkestra - The Talking Drum.wav
Peak level 74.8 %
Extraction speed 2.2 X
Track quality 99.9 %
Test CRC B22BF8C5
Copy CRC B22BF8C5
Track not present in AccurateRip database
Copy OK
Track 10
Filename F:\[UPLOADS]\Pharoah Sanders - In The Beginning 1963-1964 (2012) [FLAC]\Disc #4 - Sun Ra & His Solar Arkestra Live at Judson Hall New York (12-31-64)\10 Sun Ra Arkestra - Conversation with Saturn.wav
Peak level 61.1 %
Extraction speed 2.6 X
Track quality 100.0 %
Test CRC 5DA606FC
Copy CRC 5DA606FC
Track not present in AccurateRip database
Copy OK
Track 11
Filename F:\[UPLOADS]\Pharoah Sanders - In The Beginning 1963-1964 (2012) [FLAC]\Disc #4 - Sun Ra & His Solar Arkestra Live at Judson Hall New York (12-31-64)\11 Sun Ra Arkestra - The Next Stop Mars.wav
Peak level 74.9 %
Extraction speed 1.7 X
Track quality 100.0 %
Test CRC 1868F22F
Copy CRC 1868F22F
Track not present in AccurateRip database
Copy OK
Track 12
Filename F:\[UPLOADS]\Pharoah Sanders - In The Beginning 1963-1964 (2012) [FLAC]\Disc #4 - Sun Ra & His Solar Arkestra Live at Judson Hall New York (12-31-64)\12 Sun Ra Arkestra - The Second Stop Is Jupiter.wav
Peak level 74.1 %
Extraction speed 2.4 X
Track quality 100.0 %
Test CRC CAABA89A
Copy CRC CAABA89A
Track not present in AccurateRip database
Copy OK
Track 13
Filename F:\[UPLOADS]\Pharoah Sanders - In The Beginning 1963-1964 (2012) [FLAC]\Disc #4 - Sun Ra & His Solar Arkestra Live at Judson Hall New York (12-31-64)\13 Sun Ra Arkestra - Pathway To The Outer Known.wav
Peak level 56.2 %
Extraction speed 2.7 X
Track quality 100.0 %
Test CRC 404A6589
Copy CRC 404A6589
Track not present in AccurateRip database
Copy OK
Track 14
Filename F:\[UPLOADS]\Pharoah Sanders - In The Beginning 1963-1964 (2012) [FLAC]\Disc #4 - Sun Ra & His Solar Arkestra Live at Judson Hall New York (12-31-64)\14 Sun Ra Interview - Meeting John Coltrane.wav
Peak level 94.2 %
Extraction speed 1.4 X
Track quality 99.8 %
Test CRC 1FF489A7
Copy CRC 1FF489A7
Track not present in AccurateRip database
Copy OK
Track 15
Filename F:\[UPLOADS]\Pharoah Sanders - In The Beginning 1963-1964 (2012) [FLAC]\Disc #4 - Sun Ra & His Solar Arkestra Live at Judson Hall New York (12-31-64)\15 Pharoah Sanders Interview - John Coltrane.wav
Peak level 94.2 %
Extraction speed 2.4 X
Track quality 99.9 %
Test CRC 394D2A06
Copy CRC 394D2A06
Track not present in AccurateRip database
Copy OK
Track 16
Filename F:\[UPLOADS]\Pharoah Sanders - In The Beginning 1963-1964 (2012) [FLAC]\Disc #4 - Sun Ra & His Solar Arkestra Live at Judson Hall New York (12-31-64)\16 Pharoah Sanders Interview - Playing At Slug's.wav
Peak level 80.8 %
Extraction speed 2.0 X
Track quality 100.0 %
Test CRC 34C66AF3
Copy CRC 34C66AF3
Track not present in AccurateRip database
Copy OK
Track 17
Filename F:\[UPLOADS]\Pharoah Sanders - In The Beginning 1963-1964 (2012) [FLAC]\Disc #4 - Sun Ra & His Solar Arkestra Live at Judson Hall New York (12-31-64)\17 Pharoah Sanders Interview - Closing Comments.wav
Peak level 94.2 %
Extraction speed 2.7 X
Track quality 100.0 %
Test CRC 8A758160
Copy CRC 8A758160
Track not present in AccurateRip database
Copy OK
None of the tracks are present in the AccurateRip database
No errors occurred
End of status report
---- CUETools DB Plugin V2.1.3
[CTDB TOCID: HYKaBYjzHfLbssfDQgkphDeATrU-] disk not present in database, Submit result: HYKaBYjzHfLbssfDQgkphDeATrU- has been uploaded
==== Log checksum 61CBD2C43DC989F26C5E2368242A32615B94E0312F8B1A49902AF9AC701823C1 ====
 
Содержание индексной карты (.CUE)
 
cd1
REM GENRE Jazz
REM DATE 2012
REM DISCID F90C7B11
REM COMMENT "ExactAudioCopy v1.0b3"
PERFORMER "Pharoah Sanders"
TITLE "In The Beginning Disc #1"
FILE "01 Pharoah Sanders Interview - Coming To New York.wav" WAVE
TRACK 01 AUDIO
TITLE "Pharoah Sanders Interview - Coming To New York"
PERFORMER "Pharoah Sanders"
FLAGS DCP
INDEX 01 00:00:00
FILE "02 The Don Cherry Quintet - Cocktail Piece (first variation) take 1.wav" WAVE
TRACK 02 AUDIO
TITLE "The Don Cherry Quintet - Cocktail Piece (first variation) take 1"
PERFORMER "Pharoah Sanders"
FLAGS DCP
INDEX 01 00:00:00
FILE "03 The Don Cherry Quintet - Cocktail Piece (first variation) take 2.wav" WAVE
TRACK 03 AUDIO
TITLE "The Don Cherry Quintet - Cocktail Piece (first variation) take 2"
PERFORMER "Pharoah Sanders"
FLAGS DCP
INDEX 01 00:00:00
FILE "04 Studio Engineer Announcement.wav" WAVE
TRACK 04 AUDIO
TITLE "Studio Engineer Announcement"
PERFORMER "Pharoah Sanders"
FLAGS DCP
INDEX 01 00:00:00
FILE "05 The Don Cherry Quintet - Cherry's Dilemma.wav" WAVE
TRACK 05 AUDIO
TITLE "The Don Cherry Quintet - Cherry's Dilemma"
PERFORMER "Pharoah Sanders"
FLAGS DCP
INDEX 01 00:00:00
FILE "06 Studio Engineer Annoucement.wav" WAVE
TRACK 06 AUDIO
TITLE "Studio Engineer Annoucement"
PERFORMER "Pharoah Sanders"
FLAGS DCP
INDEX 01 00:00:00
FILE "07 The Don Cherry Quintet - Remembrance (first variation).wav" WAVE
TRACK 07 AUDIO
TITLE "The Don Cherry Quintet - Remembrance (first variation)"
PERFORMER "Pharoah Sanders"
FLAGS DCP
INDEX 01 00:00:00
FILE "08 The Don Cherry Quintet - Medley Thelonious Monk Compositions.wav" WAVE
TRACK 08 AUDIO
TITLE "The Don Cherry Quintet - Medley Thelonious Monk Compositions"
PERFORMER "Pharoah Sanders"
FLAGS DCP
INDEX 01 00:00:00
FILE "09 Don Cherry Interview - Ornette's Influence Pt. 1.wav" WAVE
TRACK 09 AUDIO
TITLE "Don Cherry Interview - Ornette's Influence Pt. 1"
PERFORMER "Pharoah Sanders"
FLAGS DCP
INDEX 01 00:00:00
FILE "10 Don Cherry Interview - Ornette's Influence Pt. 2.wav" WAVE
TRACK 10 AUDIO
TITLE "Don Cherry Interview - Ornette's Influence Pt. 2"
PERFORMER "Pharoah Sanders"
FLAGS DCP
INDEX 01 00:00:00
FILE "11 Paul Bley Interview - 1960's Avant Garde.wav" WAVE
TRACK 11 AUDIO
TITLE "Paul Bley Interview - 1960's Avant Garde"
PERFORMER "Pharoah Sanders"
FLAGS DCP
INDEX 01 00:00:00
FILE "12 The Paul Bley Quartet - Generous 1 take 1 (setting levels).wav" WAVE
TRACK 12 AUDIO
TITLE "The Paul Bley Quartet - Generous 1 take 1 (setting levels)"
PERFORMER "Pharoah Sanders"
FLAGS DCP
INDEX 01 00:00:00
FILE "13 The Paul Bley Quartet - Generous 1 take 2.wav" WAVE
TRACK 13 AUDIO
TITLE "The Paul Bley Quartet - Generous 1 take 2"
PERFORMER "Pharoah Sanders"
FLAGS DCP
INDEX 01 00:00:00
FILE "14 The Paul Bley Quartet - Walking Woman take 1.wav" WAVE
TRACK 14 AUDIO
TITLE "The Paul Bley Quartet - Walking Woman take 1"
PERFORMER "Pharoah Sanders"
FLAGS DCP
INDEX 01 00:00:00
FILE "15 The Paul Bley Quartet - Walking Woman take 2.wav" WAVE
TRACK 15 AUDIO
TITLE "The Paul Bley Quartet - Walking Woman take 2"
PERFORMER "Pharoah Sanders"
FLAGS DCP
INDEX 01 00:00:00
FILE "16 The Paul Bley Quartet - Ictus.wav" WAVE
TRACK 16 AUDIO
TITLE "The Paul Bley Quartet - Ictus"
PERFORMER "Pharoah Sanders"
FLAGS DCP
INDEX 01 00:00:00
FILE "17 Note After Session Conversation.wav" WAVE
TRACK 17 AUDIO
TITLE "Note After Session Conversation"
PERFORMER "Pharoah Sanders"
FLAGS DCP
INDEX 01 00:00:00
 
cd2
REM GENRE Jazz
REM DATE 2012
REM DISCID 2F0D6D05
REM COMMENT "ExactAudioCopy v1.0b3"
PERFORMER "Pharoah Sanders"
TITLE "In The Beginning Disc #2 "
FILE "01 Pharoah Sanders Interview - Musician He Performed With Pt. 1.wav" WAVE
TRACK 01 AUDIO
TITLE "Pharoah Sanders Interview - Musician He Performed With Pt. 1"
PERFORMER "Pharoah Sanders"
FLAGS DCP
INDEX 01 00:00:00
FILE "02 Bernard Stollman Interview - Meeting Pharoah Sanders.wav" WAVE
TRACK 02 AUDIO
TITLE "Bernard Stollman Interview - Meeting Pharoah Sanders"
PERFORMER "Pharoah Sanders"
FLAGS DCP
INDEX 01 00:00:00
FILE "03 Pharoah Sanders Quintet - Seven By Seven.wav" WAVE
TRACK 03 AUDIO
TITLE "Pharoah Sanders Quintet - Seven By Seven"
PERFORMER "Pharoah Sanders"
FLAGS DCP
INDEX 01 00:00:00
FILE "04 Pharoah Sanders Quintet - Bethera.wav" WAVE
TRACK 04 AUDIO
TITLE "Pharoah Sanders Quintet - Bethera"
PERFORMER "Pharoah Sanders"
FLAGS DCP
INDEX 01 00:00:00
FILE "05 Pharoah Sanders Interview - Musicians He Performed With Pt. 2.wav" WAVE
TRACK 05 AUDIO
TITLE "Pharoah Sanders Interview - Musicians He Performed With Pt. 2"
PERFORMER "Pharoah Sanders"
FLAGS DCP
INDEX 01 00:00:00
 
cd3
REM GENRE Jazz
REM DATE 2012
REM DISCID 330B3406
REM COMMENT "ExactAudioCopy v1.0b3"
PERFORMER "Pharoah Sanders"
TITLE "In The Beginning Disc #3 "
FILE "01 Pharoah Sanders Interview - Meeting Sun Ra.wav" WAVE
TRACK 01 AUDIO
TITLE "Pharoah Sanders Interview - Meeting Sun Ra"
PERFORMER "Pharoah Sanders"
FLAGS DCP
INDEX 01 00:00:00
FILE "02 Sun Ra Arkestra - Dawn Over Israel.wav" WAVE
TRACK 02 AUDIO
TITLE "Sun Ra Arkestra - Dawn Over Israel"
PERFORMER "Pharoah Sanders"
FLAGS DCP
INDEX 01 00:00:00
FILE "03 Sun Ra Arkestra - The Shadow World.wav" WAVE
TRACK 03 AUDIO
TITLE "Sun Ra Arkestra - The Shadow World"
PERFORMER "Pharoah Sanders"
FLAGS DCP
INDEX 01 00:00:00
FILE "04 Sun Ra Arkestra - The Second Stop Is Jupiter.wav" WAVE
TRACK 04 AUDIO
TITLE "Sun Ra Arkestra - The Second Stop Is Jupiter"
PERFORMER "Pharoah Sanders"
FLAGS DCP
INDEX 01 00:00:00
FILE "05 Sun Ra Arkestra - Discipline #9.wav" WAVE
TRACK 05 AUDIO
TITLE "Sun Ra Arkestra - Discipline #9"
PERFORMER "Pharoah Sanders"
FLAGS DCP
INDEX 01 00:00:00
FILE "06 Sun Ra Arkestra - We Travel The Spaceways.wav" WAVE
TRACK 06 AUDIO
TITLE "Sun Ra Arkestra - We Travel The Spaceways"
PERFORMER "Pharoah Sanders"
FLAGS DCP
INDEX 01 00:00:00
 
cd4
REM GENRE Jazz
REM DATE 2012
REM DISCID EE0E0411
REM COMMENT "ExactAudioCopy v1.0b3"
PERFORMER "Pharoah Sanders"
TITLE "In The Beginning Disc #4"
FILE "01 Sun Ra Interview - Being Neglected As An Artist.wav" WAVE
TRACK 01 AUDIO
TITLE "Sun Ra Interview - Being Neglected As An Artist"
PERFORMER "Pharoah Sanders"
FLAGS DCP
INDEX 01 00:00:00
FILE "02 Sun Ra Arkestra - Gods On Safari.wav" WAVE
TRACK 02 AUDIO
TITLE "Sun Ra Arkestra - Gods On Safari"
PERFORMER "Pharoah Sanders"
FLAGS DCP
INDEX 01 00:00:00
FILE "03 Sun Ra Arkestra - The Shadow World.wav" WAVE
TRACK 03 AUDIO
TITLE "Sun Ra Arkestra - The Shadow World"
PERFORMER "Pharoah Sanders"
FLAGS DCP
INDEX 01 00:00:00
FILE "04 Sun Ra Arkestra - Rocket #9.wav" WAVE
TRACK 04 AUDIO
TITLE "Sun Ra Arkestra - Rocket #9"
PERFORMER "Pharoah Sanders"
FLAGS DCP
INDEX 01 00:00:00
FILE "05 Sun Ra Arkestra - The Voice Of Pan Pt. 1.wav" WAVE
TRACK 05 AUDIO
TITLE "Sun Ra Arkestra - The Voice Of Pan Pt. 1"
PERFORMER "Pharoah Sanders"
FLAGS DCP
INDEX 01 00:00:00
FILE "06 Sun Ra Arkestra - Dawn Over Israel.wav" WAVE
TRACK 06 AUDIO
TITLE "Sun Ra Arkestra - Dawn Over Israel"
PERFORMER "Pharoah Sanders"
FLAGS DCP
INDEX 01 00:00:00
FILE "07 Sun Ra Arkestra - Space Mates.wav" WAVE
TRACK 07 AUDIO
TITLE "Sun Ra Arkestra - Space Mates"
PERFORMER "Pharoah Sanders"
FLAGS DCP
INDEX 01 00:00:00
FILE "08 Sun Ra Arkestra - The Voice Of Pan Pt. 2.wav" WAVE
TRACK 08 AUDIO
TITLE "Sun Ra Arkestra - The Voice Of Pan Pt. 2"
PERFORMER "Pharoah Sanders"
FLAGS DCP
INDEX 01 00:00:00
FILE "09 Sun Ra Arkestra - The Talking Drum.wav" WAVE
TRACK 09 AUDIO
TITLE "Sun Ra Arkestra - The Talking Drum"
PERFORMER "Pharoah Sanders"
FLAGS DCP
INDEX 01 00:00:00
FILE "10 Sun Ra Arkestra - Conversation with Saturn.wav" WAVE
TRACK 10 AUDIO
TITLE "Sun Ra Arkestra - Conversation with Saturn"
PERFORMER "Pharoah Sanders"
FLAGS DCP
INDEX 01 00:00:00
FILE "11 Sun Ra Arkestra - The Next Stop Mars.wav" WAVE
TRACK 11 AUDIO
TITLE "Sun Ra Arkestra - The Next Stop Mars"
PERFORMER "Pharoah Sanders"
FLAGS DCP
INDEX 01 00:00:00
FILE "12 Sun Ra Arkestra - The Second Stop Is Jupiter.wav" WAVE
TRACK 12 AUDIO
TITLE "Sun Ra Arkestra - The Second Stop Is Jupiter"
PERFORMER "Pharoah Sanders"
FLAGS DCP
INDEX 01 00:00:00
FILE "13 Sun Ra Arkestra - Pathway To The Outer Known.wav" WAVE
TRACK 13 AUDIO
TITLE "Sun Ra Arkestra - Pathway To The Outer Known"
PERFORMER "Pharoah Sanders"
FLAGS DCP
INDEX 01 00:00:00
FILE "14 Sun Ra Interview - Meeting John Coltrane.wav" WAVE
TRACK 14 AUDIO
TITLE "Sun Ra Interview - Meeting John Coltrane"
PERFORMER "Pharoah Sanders"
FLAGS DCP
INDEX 01 00:00:00
FILE "15 Pharoah Sanders Interview - John Coltrane.wav" WAVE
TRACK 15 AUDIO
TITLE "Pharoah Sanders Interview - John Coltrane"
PERFORMER "Pharoah Sanders"
FLAGS DCP
INDEX 01 00:00:00
FILE "16 Pharoah Sanders Interview - Playing At Slug's.wav" WAVE
TRACK 16 AUDIO
TITLE "Pharoah Sanders Interview - Playing At Slug's"
PERFORMER "Pharoah Sanders"
FLAGS DCP
INDEX 01 00:00:00
FILE "17 Pharoah Sanders Interview - Closing Comments.wav" WAVE
TRACK 17 AUDIO
TITLE "Pharoah Sanders Interview - Closing Comments"
PERFORMER "Pharoah Sanders"
FLAGS DCP
INDEX 01 00:00:00
Доп. информация:
Disc #1,2 & 3 : Stereo Tracks
Disc #4 : Mono Tracks
 
Об альбоме (сборнике)
While the musical benefits Pharoah Sanders enjoyed as the direct result of his association with John Coltrane are indisputable (not to mention the instant high profile he received), it was hardly the beginning of the story. The four-disc The Pharoah Sanders Story: In the Beginning 1963-1964 may not be, either, but until we get earlier material, this fills out the saxophonist's portrait considerably. Compiled by Sun Ra Archive boss Michael D. Anderson for ESP-Disk, this first CD features two previously unreleased sessions with the Don Cherry Quintet and the Paul Bley Quartet in 1963 and 1964. Along with the music, there are separate archival interviews with all three men. Disc two compiles Sanders' first date as a leader for ESP (an unexceptional band mars the album, keeping it from what it could have been; Sanders' playing is fantastic), as well as a couple of interviews. The third and fourth CDs compile for the first time Sanders' historic performance with the Sun Ra Arkestra at New York City's Judson Hall in 1965, as well as interviews with Ra as well as Sanders. The Arkestra date is compelling for a number of reasons, not the least of which is that Sanders was asked to fill in for John Gilmore; other players on this unique date included flutist Black Harold (Harold Murray) and bassist Alan Silva. Some of this music was originally released as Sun Ra: With Pharoah Sanders and Black Harold in 1976, but this set includes the previously unissued, first known recording of "The Shadow World." While this collection will certainly appeal to Sanders completists, fans of Cherry, Bley, and Ra also have reason to celebrate too. More even than these listeners, The Pharoah Sanders Story: In the Beginning 1963-1964 is one of those dream-come-true releases for avant-jazz archivists.
 
Состав
Marshall Allen Flute, Percussion, Sax (Alto)
Michael D. Anderson Digital Transfers, Graphics, Interviewer, Mastering, Producer
William Bennett Bass
Carla Bley Composer
Paul Bley Piano, Primary Artist
The Paul Bley Quartet Primary Artist
Ronnie Boykins Bass
Don Cherry Cornet, Piano, Primary Artist
Don Cherry Quintet Primary Artist
Al Evans Trumpet
Stan Foster Trumpet
Jane Getz Piano
Jonathan Granoff Assembly, Graphics, Layout
Black Harold Flute, Log Drums
David Izenzon Bass
Clifford Jarvis Drums
Art Jenkins Voices
Jimmhi Johnson Drums
Thelonious Monk Composer
J.C. Moses Drums
Paul Motian Drums
Russ Musto Liner Notes
Teddy Nance Trombone
Jerry Newman Engineer
Chris Nolte Editing
Pat Patrick Sax (Baritone)
Marvin Pattillo Drums
Sun Ra Celeste, Composer, Piano, Primary Artist
Sun Ra Arkestra Primary Artist
Pharoah Sanders Composer, Primary Artist, Sax (Tenor)
Pharoah Sanders Quintet Primary Artist
Joseph Scianni Piano
Alan Silva Bass
Bernard Stollman Primary Artist
Any questions -> support@pro-jazz.com. По всем вопросам пишите -> support@pro-jazz.com
04:04
309
Нет комментариев. Ваш будет первым!