Вы используете незарегистрированную версию компонента "Вкладки"!

Поиск

(Avant- Garde Jazz) Paul Dresher Ensemble with Rinde Eckert - Slow Fire - 1992, FLAC (image+.cue), lossless

Треклист:
Paul Dresher Ensemble with Rinde Eckert - Slow Fire
Жанр: Avant- Garde Jazz
Год выпуска диска: 1992
Производитель диска: Minmax Music, USA
Аудио кодек: FLAC
Тип рипа: image+.cue
Битрейт аудио: lossless
Продолжительность: 57:16
Трэклист:
01.Sleeping With The Lights On
02.Duck Blind
03.Dad's Letter
04.The Magazine Dream
05.Swimming
06.The Sunday Paper
07.Match Stick Empire
08.Riding Shotgun
09.Without A Word
10.Eyes Open
Доп. информация: Paul Dresher studied with Robert Erickson, Roger Reynolds, Pauline Oliveros, Bernard Rands. Ghanaian drumming with C.K. and Kobla Ladzekpo, Hindustani classical music with Nikhil Banerjee, and Balinese and Javanese music. Guitarist with live delay systems. Organizer Electro-Acoustic Band, artistic director Paul Dresher Ensemble. Collaborations about American culture Slow Fire (1985-88), Power Failure (1988-89), and Pioneer (1990). The Gates (1993) for dancer Margaret Jenkins. Many awards and orchestral, opera commissions.
 
скрытый текст
Exact Audio Copy V0.99 prebeta 5 from 4. May 2009
EAC extraction logfile from 17. November 2009, 12:55
Paul Dresher / Slow Fire
Used drive : HL-DT-STDVD-RAM GSA-H55N Adapter: 1 ID: 0
Read mode : Secure
Utilize accurate stream : Yes
Defeat audio cache : Yes
Make use of C2 pointers : No
Read offset correction : 102
Overread into Lead-In and Lead-Out : No
Fill up missing offset samples with silence : Yes
Delete leading and trailing silent blocks : No
Null samples used in CRC calculations : Yes
Used interface : Installed external ASPI interface
Used output format : User Defined Encoder
Selected bitrate : 768 kBit/s
Quality : High
Add ID3 tag : No
Command line compressor : C:\Program Files\Exact Audio Copy\FLAC\FLAC.EXE
Additional command line options : -8 -V -T "ARTIST=%a" -T "TITLE=%t" -T "ALBUM=%g" -T "DATE=%y" -T "TRACKNUMBER=%n" -T "GENRE=%m" -T "COMMENT=EAC FLAC -8" %s
TOC of the extracted CD
Track | Start | Length | Start sector | End sector
---------------------------------------------------------
1 | 0:00.00 | 6:09.32 | 0 | 27706
2 | 6:09.32 | 6:33.45 | 27707 | 57226
3 | 12:43.02 | 4:39.65 | 57227 | 78216
4 | 17:22.67 | 11:05.53 | 78217 | 128144
5 | 28:28.45 | 6:10.42 | 128145 | 155936
6 | 34:39.12 | 4:18.00 | 155937 | 175286
7 | 38:57.12 | 5:12.28 | 175287 | 198714
8 | 44:09.40 | 5:18.40 | 198715 | 222604
9 | 49:28.05 | 2:51.05 | 222605 | 235434
10 | 52:19.10 | 4:56.67 | 235435 | 257701
Range status and errors
Selected range
Filename E:\Nukrauti\FLAC\Paul Dresher Ensemble\Paul Dresher - Slow Fire.wav
Peak level 100.0 %
Range quality 99.9 %
Test CRC 1EFDFABA
Copy CRC 1EFDFABA
Copy OK
No errors occurred
AccurateRip summary
Track 1 not present in database
Track 2 not present in database
Track 3 not present in database
Track 4 not present in database
Track 5 not present in database
Track 6 not present in database
Track 7 not present in database
Track 8 not present in database
Track 9 not present in database
Track 10 not present in database
None of the tracks are present in the AccurateRip database
End of status report
По всем вопросам пишите личное сообщение пользователю M0p94ok.
16:45
234
Нет комментариев. Ваш будет первым!