Вы используете незарегистрированную версию компонента "Вкладки"!

Поиск

(Avant-Garde Jazz) Patty Waters - College Tour - 1966, FLAC (tracks+.cue), lossless

(Avant-Garde Jazz) Patty Waters - College Tour - 1966, FLAC (tracks+.cue), lossless
Треклист:
Patty Waters - College Tour
Жанр: Avant-Garde Jazz
Год выпуска диска: 1966
Производитель диска: USA
Аудио кодек: FLAC
Тип рипа: tracks+.cue
Битрейт аудио: lossless
Продолжительность: 36:37
1 Song Of Clifford
2 Hush Little Baby With Ba Ha Bad (which means "Kingdom Of God" in Persian)
3 Wild Is The Wind
4 Prayer
5 It Never Entered My Mind
6 Song Of Life With Hush Little Baby
7 Song Of The One (I Love) Or Love, My Love
Recorded Live on the New-York State CollegeTour in April 1966.
 
Отчёт ЕАС
Exact Audio Copy V0.99 prebeta 4 from 23. January 2008
EAC extraction logfile from 9. February 2010, 8:13
Patty Waters / College Tour
Used drive : MATSHITADVD-RAM UJ-860S Adapter: 0 ID: 0
Read mode : Secure
Utilize accurate stream : Yes
Defeat audio cache : Yes
Make use of C2 pointers : No
Read offset correction : 102
Overread into Lead-In and Lead-Out : No
Fill up missing offset samples with silence : Yes
Delete leading and trailing silent blocks : No
Null samples used in CRC calculations : Yes
Used interface : Installed external ASPI interface
Gap handling : Appended to previous track
Used output format : User Defined Encoder
Selected bitrate : 320 kBit/s
Quality : High
Add ID3 tag : No
Command line compressor : C:\Program Files\FLAC\flac.exe
Additional command line options : -8 -V -T "ARTIST=%a" -T"TITLE=%t" -T"ALBUM=%g" -T"DATE=%y" -T"TRACKNUMBER=%n" -T"GENRE=%m" -T"COMMENT=EAC FLAC -8" %s
TOC of the extracted CD
Track | Start | Length | Start sector | End sector
---------------------------------------------------------
1 | 0:00.00 | 4:10.62 | 0 | 18811
2 | 4:10.62 | 6:55.51 | 18812 | 49987
3 | 11:06.38 | 5:52.71 | 49988 | 76458
4 | 16:59.34 | 2:54.02 | 76459 | 89510
5 | 19:53.36 | 4:26.55 | 89511 | 109515
6 | 24:20.16 | 4:44.62 | 109516 | 130877
7 | 29:05.03 | 7:36.63 | 130878 | 165140
Track 1
Filename C:\Users\123\Desktop\Мои документы\Musak\Patty Waters\Patty Waters - College Tour (1966)\01 - Song Of Clifford.wav
Pre-gap length 0:00:02.00
Peak level 59.7 %
Track quality 100.0 %
Test CRC DE67E205
Copy CRC DE67E205
Track not present in AccurateRip database
Copy OK
Track 2
Filename C:\Users\123\Desktop\Мои документы\Musak\Patty Waters\Patty Waters - College Tour (1966)\02 - Hush Little Baby With Ba Ha Bad (Kingdom Of God).wav
Peak level 89.7 %
Track quality 100.0 %
Test CRC 52D686B6
Copy CRC 52D686B6
Track not present in AccurateRip database
Copy OK
Track 3
Filename C:\Users\123\Desktop\Мои документы\Musak\Patty Waters\Patty Waters - College Tour (1966)\03 - Wild Is The Wind.wav
Peak level 95.2 %
Track quality 100.0 %
Test CRC 290527CB
Copy CRC 290527CB
Track not present in AccurateRip database
Copy OK
Track 4
Filename C:\Users\123\Desktop\Мои документы\Musak\Patty Waters\Patty Waters - College Tour (1966)\04 - Prayer.wav
Peak level 38.8 %
Track quality 99.9 %
Test CRC FDB622DA
Copy CRC FDB622DA
Track not present in AccurateRip database
Copy OK
Track 5
Filename C:\Users\123\Desktop\Мои документы\Musak\Patty Waters\Patty Waters - College Tour (1966)\05 - It Never Entered My Mind.wav
Peak level 94.2 %
Track quality 100.0 %
Test CRC 1DEE6697
Copy CRC 1DEE6697
Track not present in AccurateRip database
Copy OK
Track 6
Filename C:\Users\123\Desktop\Мои документы\Musak\Patty Waters\Patty Waters - College Tour (1966)\06 - Song Of Life With Hush Little Baby.wav
Peak level 67.6 %
Track quality 100.0 %
Test CRC F44744CD
Copy CRC F44744CD
Track not present in AccurateRip database
Copy OK
Track 7
Filename C:\Users\123\Desktop\Мои документы\Musak\Patty Waters\Patty Waters - College Tour (1966)\07 - Song Of The One (I Love) Or Love, My Love.wav
Peak level 80.8 %
Track quality 100.0 %
Test CRC 1E47E792
Copy CRC 1E47E792
Track not present in AccurateRip database
Copy OK
None of the tracks are present in the AccurateRip database
No errors occurred
End of status report
 
CUE
REM DATE 1966
REM DISCID 53089907
REM COMMENT "ExactAudioCopy v0.99pb4"
PERFORMER "Patty Waters"
TITLE "College Tour"
FILE "01 - Song Of Clifford.wav" WAVE
TRACK 01 AUDIO
TITLE "Song Of Clifford"
PERFORMER "Patty Waters"
INDEX 01 00:00:00
FILE "02 - Hush Little Baby With Ba Ha Bad (Kingdom Of God).wav" WAVE
TRACK 02 AUDIO
TITLE "Hush Little Baby With Ba Ha Bad (Kingdom Of God)"
PERFORMER "Patty Waters"
INDEX 01 00:00:00
FILE "03 - Wild Is The Wind.wav" WAVE
TRACK 03 AUDIO
TITLE "Wild Is The Wind"
PERFORMER "Patty Waters"
INDEX 01 00:00:00
FILE "04 - Prayer.wav" WAVE
TRACK 04 AUDIO
TITLE "Prayer"
PERFORMER "Patty Waters"
INDEX 01 00:00:00
FILE "05 - It Never Entered My Mind.wav" WAVE
TRACK 05 AUDIO
TITLE "It Never Entered My Mind"
PERFORMER "Patty Waters"
INDEX 01 00:00:00
FILE "06 - Song Of Life With Hush Little Baby.wav" WAVE
TRACK 06 AUDIO
TITLE "Song Of Life With Hush Little Baby"
PERFORMER "Patty Waters"
INDEX 01 00:00:00
FILE "07 - Song Of The One (I Love) Or Love, My Love.wav" WAVE
TRACK 07 AUDIO
TITLE "Song Of The One (I Love) Or Love, My Love"
PERFORMER "Patty Waters"
INDEX 01 00:00:00
 
Tau Analyzer
По всем вопросам пишите личное сообщение пользователю M0p94ok.
18:52
178
Нет комментариев. Ваш будет первым!