Вы используете незарегистрированную версию компонента "Вкладки"!

Поиск

(Avant-Garde Jazz) Ornette Coleman - The Empty Foxhole - 1966, FLAC (tracks+.cue), lossless

(Avant-Garde Jazz) Ornette Coleman - The Empty Foxhole - 1966, FLAC (tracks+.cue), lossless
Треклист:
Ornette Coleman - The Empty Foxhole
Жанр: Avant-Garde Jazz
Страна-производитель диска: США
Год издания: 1994
Издатель (лейбл): Blue Note: Connoisseur Series
Номер по каталогу: CDP 7243 8 28982 2 1
Аудиокодек: FLAC (*.flac)
Тип рипа: tracks+.cue
Битрейт аудио: lossless
Продолжительность: 38:45
Источник (релизер): pitchbender (what)
Наличие сканов в содержимом раздачи: нет
Треклист:
01. Good Old Days (Coleman) - 6:49
02. The Empty Foxhole (Coleman) - 3:20
03. Sound Gravitation (Coleman) - 7:16
04. Freeway Express (Coleman) - 8:18
05. Faithful (Coleman) - 7:05
06. Zig Zag (Coleman) - 5:57
Состав:
Ornette Coleman - alto saxophone, trumpet, violin
Charles Haden - bass
Ornette Denardo Coleman - drums
Recorded at the Van Gelder Studio, Englewood Cliffs, NJ on September 9, 1966.
 
Лог создания рипа
X Lossless Decoder version 20110703 (135.1)
XLD extraction logfile from 2011-07-12 19:33:53 -0700
Ornette Coleman / The Empty Foxhole
Used drive : MATSHITA DVD-R UJ-8A8 (revision HA13)
Ripper mode : XLD Secure Ripper
Disable audio cache : OK for the drive with a cache less than 1375KiB
Make use of C2 pointers : NO
Read offset correction : 102
Max retry count : 20
Gap status : Analyzed, Appended
TOC of the extracted CD
Track | Start | Length | Start sector | End sector
---------------------------------------------------------
1 | 00:00:00 | 06:49:70 | 0 | 30744
2 | 06:49:70 | 03:20:50 | 30745 | 45794
3 | 10:10:45 | 07:16:25 | 45795 | 78519
4 | 17:26:70 | 08:18:05 | 78520 | 115874
5 | 25:45:00 | 07:05:17 | 115875 | 147766
6 | 32:50:17 | 05:57:43 | 147767 | 174584
AccurateRip Summary
Track 01 : OK (confidence 4)
Track 02 : OK (confidence 4)
Track 03 : OK (confidence 4)
Track 04 : OK (confidence 4)
Track 05 : OK (confidence 4)
Track 06 : OK (confidence 4)
->All tracks accurately ripped.
All Tracks
Album gain : -0.25 dB
Peak : 0.879395
Statistics
Read error : 0
Jitter error (maybe fixed) : 0
Retry sector count : 0
Damaged sector count : 0
Track 01
Filename : /Volumes/MULTIMEDIA/RIPS FROM ROB/Ornette Coleman - The Empty Foxhole (1966) [FLAC-CD]/01 Ornette Coleman - Good Old Days.flac
Pre-gap length : 00:02:00
Track gain : -1.00 dB
Peak : 0.819916
CRC32 hash (test run) : D97B56B8
CRC32 hash : D97B56B8
CRC32 hash (skip zero) : 3AED84E0
AccurateRip signature : 6E94962E
->Accurately ripped! (confidence 4)
Statistics
Read error : 0
Jitter error (maybe fixed) : 0
Retry sector count : 0
Damaged sector count : 0
Track 02
Filename : /Volumes/MULTIMEDIA/RIPS FROM ROB/Ornette Coleman - The Empty Foxhole (1966) [FLAC-CD]/02 Ornette Coleman - The Empty Foxhole.flac
Pre-gap length : 00:01:48
Track gain : 2.56 dB
Peak : 0.850861
CRC32 hash (test run) : 0DF1DD31
CRC32 hash : 0DF1DD31
CRC32 hash (skip zero) : DA52222E
AccurateRip signature : 853F7021
->Accurately ripped! (confidence 4)
Statistics
Read error : 0
Jitter error (maybe fixed) : 0
Retry sector count : 0
Damaged sector count : 0
Track 03
Filename : /Volumes/MULTIMEDIA/RIPS FROM ROB/Ornette Coleman - The Empty Foxhole (1966) [FLAC-CD]/03 Ornette Coleman - Sound Gravitation.flac
Pre-gap length : 00:01:55
Track gain : 3.69 dB
Peak : 0.638153
CRC32 hash (test run) : 18024020
CRC32 hash : 18024020
CRC32 hash (skip zero) : E3B41119
AccurateRip signature : CE1BDB35
->Accurately ripped! (confidence 4)
Statistics
Read error : 0
Jitter error (maybe fixed) : 0
Retry sector count : 0
Damaged sector count : 0
Track 04
Filename : /Volumes/MULTIMEDIA/RIPS FROM ROB/Ornette Coleman - The Empty Foxhole (1966) [FLAC-CD]/04 Ornette Coleman - Freeway Express.flac
Pre-gap length : 00:01:18
Track gain : -0.61 dB
Peak : 0.879395
CRC32 hash (test run) : 819CD6BE
CRC32 hash : 819CD6BE
CRC32 hash (skip zero) : 303535E4
AccurateRip signature : 20F76409
->Accurately ripped! (confidence 4)
Statistics
Read error : 0
Jitter error (maybe fixed) : 0
Retry sector count : 0
Damaged sector count : 0
Track 05
Filename : /Volumes/MULTIMEDIA/RIPS FROM ROB/Ornette Coleman - The Empty Foxhole (1966) [FLAC-CD]/05 Ornette Coleman - Faithful.flac
Pre-gap length : 00:01:18
Track gain : 1.43 dB
Peak : 0.428925
CRC32 hash (test run) : AB4ADE72
CRC32 hash : AB4ADE72
CRC32 hash (skip zero) : 7F7E904D
AccurateRip signature : 3B707588
->Accurately ripped! (confidence 4)
Statistics
Read error : 0
Jitter error (maybe fixed) : 0
Retry sector count : 0
Damaged sector count : 0
Track 06
Filename : /Volumes/MULTIMEDIA/RIPS FROM ROB/Ornette Coleman - The Empty Foxhole (1966) [FLAC-CD]/06 Ornette Coleman - Zig Zag.flac
Pre-gap length : 00:01:20
Track gain : -1.34 dB
Peak : 0.777985
CRC32 hash (test run) : 39132EB2
CRC32 hash : 39132EB2
CRC32 hash (skip zero) : E56516E9
AccurateRip signature : F749C6FD
->Accurately ripped! (confidence 4)
Statistics
Read error : 0
Jitter error (maybe fixed) : 0
Retry sector count : 0
Damaged sector count : 0
No errors occurred
End of status report
 
Содержание индексной карты (.CUE)
PERFORMER "Ornette Coleman"
TITLE "The Empty Foxhole"
CATALOG 0724382898221
REM GENRE Jazz
REM DATE 1966
REM DISCID 42091706
REM REPLAYGAIN_ALBUM_GAIN -0.25 dB
REM REPLAYGAIN_ALBUM_PEAK 0.879395
FILE "01 - Good Old Days.wav" WAVE
TRACK 01 AUDIO
TITLE "Good Old Days"
PERFORMER "Ornette Coleman"
REM REPLAYGAIN_TRACK_GAIN -1.00 dB
REM REPLAYGAIN_TRACK_PEAK 0.819916
INDEX 01 00:00:00
TRACK 02 AUDIO
TITLE "The Empty Foxhole"
PERFORMER "Ornette Coleman"
REM REPLAYGAIN_TRACK_GAIN 2.56 dB
REM REPLAYGAIN_TRACK_PEAK 0.850861
INDEX 00 06:48:22
FILE "02 - The Empty Foxhole.wav" WAVE
INDEX 01 00:00:00
TRACK 03 AUDIO
TITLE "Sound Gravitation"
PERFORMER "Ornette Coleman"
REM REPLAYGAIN_TRACK_GAIN 3.69 dB
REM REPLAYGAIN_TRACK_PEAK 0.638153
INDEX 00 03:18:70
FILE "03 - Sound Gravitation.wav" WAVE
INDEX 01 00:00:00
TRACK 04 AUDIO
TITLE "Freeway Express"
PERFORMER "Ornette Coleman"
REM REPLAYGAIN_TRACK_GAIN -0.61 dB
REM REPLAYGAIN_TRACK_PEAK 0.879395
INDEX 00 07:15:07
FILE "04 - Freeway Express.wav" WAVE
INDEX 01 00:00:00
TRACK 05 AUDIO
TITLE "Faithful"
PERFORMER "Ornette Coleman"
REM REPLAYGAIN_TRACK_GAIN 1.43 dB
REM REPLAYGAIN_TRACK_PEAK 0.428925
INDEX 00 08:16:62
FILE "05 - Faithful.wav" WAVE
INDEX 01 00:00:00
TRACK 06 AUDIO
TITLE "Zig Zag"
PERFORMER "Ornette Coleman"
REM REPLAYGAIN_TRACK_GAIN -1.34 dB
REM REPLAYGAIN_TRACK_PEAK 0.777985
INDEX 00 07:03:72
FILE "06 - Zig Zag.wav" WAVE
INDEX 01 00:00:00
 
Отчет CUETools
[CUETools log; Date: 30.11.2012 2:48:41; Version: 2.1.4]
[CTDB TOCID: fZrb2IvkghQ5.tm30TF1p1jEsE8-] found.
Track | CTDB Status
1 | (6/6) Accurately ripped
2 | (6/6) Accurately ripped
3 | (6/6) Accurately ripped
4 | (6/6) Accurately ripped
5 | (6/6) Accurately ripped
6 | (6/6) Accurately ripped
[AccurateRip ID: 00090d87-0030d804-42091706] found.
Track [ CRC | V2 ] Status
01 [6e94962e|7df4bf02] (5+0/5) Accurately ripped
02 [853f7021|5ae1e408] (5+0/5) Accurately ripped
03 [ce1bdb35|4fd5f960] (5+0/5) Accurately ripped
04 [20f76409|6b541963] (5+0/5) Accurately ripped
05 [3b707588|614a4da2] (5+0/5) Accurately ripped
06 [f749c6fd|5d2f94f8] (5+0/5) Accurately ripped
Track Peak [ CRC32 ] [W/O NULL]
-- 87,9 [383CF295] [3ED0ECD2]
01 81,9 [D97B56B8] [3AED84E0]
02 85,0 [0DF1DD31] [DA52222E]
03 63,8 [18024020] [E3B41119]
04 87,9 [819CD6BE] [303535E4]
05 42,8 [AB4ADE72] [7F7E904D]
06 77,8 [39132EB2] [E56516E9]
 
Review by Steve Huey
Ornette Coleman's brief tenure at Blue Note was neither as seminal as his Atlantic output nor as brazenly ambitious as his early-'70s work for Columbia and later with Prime Time. Still, the period did produce some quality music, and The Empty Foxhole is one of his most intriguing efforts. Coleman hadn't entered a recording studio in over four years when he returned -- with his ten-year-old son Denardo on drums. Coleman says in the liner notes that Denardo was ready to make a record the previous year, and he's not overestimating; Denardo's percussive coloring and shading never sounds lost or confused, and his stream-of-consciousness flow of ideas keeps up surprisingly well with his father and bassist Charlie Haden. The communal energy keeps flowing throughout the session, and the trio members play off of each other with an easygoing enthusiasm, even on the less memorable themes. Most evocative are the funereal military march of the title track, where Ornette's mournful trumpet plays off of Denardo's deliberate cadence, and "Sound Gravitation," a feature for Coleman's scratchy, percussive violin. Of the alto-driven pieces, "Good Old Days" has the fieriest flow of ideas, but he seems energized by his son's presence, and his playing is fairly exciting throughout. On balance, the music may not be among Coleman's most exceptional efforts, but there's something inspiring about the fact that The Empty Foxhole is as good as it is.
На замену http://rutracker.org/forum/viewtopic.php?t=3468126
Any questions -> support@pro-jazz.com. По всем вопросам пишите -> support@pro-jazz.com
06:02
225
Нет комментариев. Ваш будет первым!