Вы используете незарегистрированную версию компонента "Вкладки"!

Поиск

(Avant-Garde Jazz, Norway) [CD] Snik (Kristoffer Kompe, Kristoffer Berre Alberts, Ole Morten Vagan, Erik Nylan) - Metasediment Rock - 2015, FLAC (tracks+.cue), lossless

(Avant-Garde Jazz, Norway) [CD] Snik (Kristoffer Kompe, Kristoffer Berre Alberts, Ole Morten Vagan, Erik Nylan) - Metasediment Rock - 2015, FLAC (tracks+.cue), lossless
Треклист:
snik ' metasediment rock
Жанр: Avant-Garde Jazz
Страна-производитель диска: Portugal
Год издания: 2015
Издатель (лейбл): Clean Feed
Номер по каталогу: CF 343
Страна исполнителя (группы): Norway
Аудиокодек: FLAC (*.flac)
Тип рипа: tracks+.cue
Битрейт аудио: lossless
Продолжительность: 38:00
Источник (релизер): спасибо 6060842
Наличие сканов: нет
Треклист:
1. Niks
2. Hæstbætt
3. Skog
4. Durham
5. Pausefisk
6. Knis
7. Sneakpeak
8. Lonely Vågan
 
Лог создания рипа
X Lossless Decoder version 20141129a (148.2)
XLD extraction logfile from 2015-10-26 11:18:42 +0300
Snik / Metasediment Rock
Used drive : HL-DT-ST DVDRW GX30N (revision RP09)
Media type : Pressed CD
Ripper mode : XLD Secure Ripper
Disable audio cache : OK for the drive with a cache less than 1375KiB
Make use of C2 pointers : NO
Read offset correction : 6
Max retry count : 400
Gap status : Analyzed, Appended (except HTOA)
TOC of the extracted CD
Track | Start | Length | Start sector | End sector
---------------------------------------------------------
1 | 00:00:00 | 06:41:46 | 0 | 30120
2 | 06:41:46 | 04:50:25 | 30121 | 51895
3 | 11:31:71 | 03:53:25 | 51896 | 69395
4 | 15:25:21 | 04:30:70 | 69396 | 89715
5 | 19:56:16 | 07:39:38 | 89716 | 124178
6 | 27:35:54 | 03:22:16 | 124179 | 139344
7 | 30:57:70 | 04:08:60 | 139345 | 158004
8 | 35:06:55 | 06:53:46 | 158005 | 189025
AccurateRip Summary
Disc not found in AccurateRip DB.
All Tracks
Album gain : -3.77 dB
Peak : 0.944427
Statistics
Read error : 0
Jitter error (maybe fixed) : 0
Retry sector count : 0
Damaged sector count : 0
Track 01
Filename : /Users/BK/Music/Grabbed/Snik/F 2015 - Metasediment Rock/01 - Niks.flac
Pre-gap length : 00:02:00
Track gain : -1.00 dB
Peak : 0.944336
CRC32 hash (test run) : 89E37CAA
CRC32 hash : 89E37CAA
CRC32 hash (skip zero) : 80B8CB66
AccurateRip v1 signature : 6107C2F1
AccurateRip v2 signature : 076A87CE
->Track not present in AccurateRip database.
Statistics
Read error : 0
Jitter error (maybe fixed) : 0
Retry sector count : 0
Damaged sector count : 0
Track 02
Filename : /Users/BK/Music/Grabbed/Snik/F 2015 - Metasediment Rock/02 - Hæstbætt.flac
Pre-gap length : 00:01:57
Track gain : -5.62 dB
Peak : 0.944427
CRC32 hash (test run) : F38FB37B
CRC32 hash : F38FB37B
CRC32 hash (skip zero) : 62267706
AccurateRip v1 signature : ADE201A9
AccurateRip v2 signature : 6B870830
->Track not present in AccurateRip database.
Statistics
Read error : 0
Jitter error (maybe fixed) : 0
Retry sector count : 0
Damaged sector count : 0
Track 03
Filename : /Users/BK/Music/Grabbed/Snik/F 2015 - Metasediment Rock/03 - Skog.flac
Pre-gap length : 00:01:57
Track gain : -2.32 dB
Peak : 0.944305
CRC32 hash (test run) : 6FE60609
CRC32 hash : 6FE60609
CRC32 hash (skip zero) : 51744144
AccurateRip v1 signature : 27CE2FC1
AccurateRip v2 signature : 4F043954
->Track not present in AccurateRip database.
Statistics
Read error : 0
Jitter error (maybe fixed) : 0
Retry sector count : 0
Damaged sector count : 0
Track 04
Filename : /Users/BK/Music/Grabbed/Snik/F 2015 - Metasediment Rock/04 - Durham.flac
Pre-gap length : 03:53:23
Track gain : -4.76 dB
Peak : 0.944305
CRC32 hash (test run) : B96EBAF0
CRC32 hash : B96EBAF0
CRC32 hash (skip zero) : 791A87F9
AccurateRip v1 signature : 36550506
AccurateRip v2 signature : 1049E579
->Track not present in AccurateRip database.
Statistics
Read error : 0
Jitter error (maybe fixed) : 0
Retry sector count : 0
Damaged sector count : 0
Track 05
Filename : /Users/BK/Music/Grabbed/Snik/F 2015 - Metasediment Rock/05 - Pausefisk.flac
Pre-gap length : 00:00:21
Track gain : -3.57 dB
Peak : 0.944336
CRC32 hash (test run) : 09A5EE89
CRC32 hash : 09A5EE89
CRC32 hash (skip zero) : 46EA88CE
AccurateRip v1 signature : CD62AAE3
AccurateRip v2 signature : 38DF998D
->Track not present in AccurateRip database.
Statistics
Read error : 0
Jitter error (maybe fixed) : 0
Retry sector count : 0
Damaged sector count : 0
Track 06
Filename : /Users/BK/Music/Grabbed/Snik/F 2015 - Metasediment Rock/06 - Knis.flac
Pre-gap length : 00:00:01
Track gain : 0.39 dB
Peak : 0.665680
CRC32 hash (test run) : 9ABF2194
CRC32 hash : 9ABF2194
CRC32 hash (skip zero) : 3E196F73
AccurateRip v1 signature : B319C49D
AccurateRip v2 signature : 8F0C6E7E
->Track not present in AccurateRip database.
Statistics
Read error : 0
Jitter error (maybe fixed) : 0
Retry sector count : 0
Damaged sector count : 0
Track 07
Filename : /Users/BK/Music/Grabbed/Snik/F 2015 - Metasediment Rock/07 - Sneakpeak.flac
Pre-gap length : 00:00:17
Track gain : -3.95 dB
Peak : 0.944244
CRC32 hash (test run) : 9FF146A1
CRC32 hash : 9FF146A1
CRC32 hash (skip zero) : 5A591667
AccurateRip v1 signature : 6A323C74
AccurateRip v2 signature : 7E46CD7C
->Track not present in AccurateRip database.
Statistics
Read error : 0
Jitter error (maybe fixed) : 0
Retry sector count : 0
Damaged sector count : 0
Track 08
Filename : /Users/BK/Music/Grabbed/Snik/F 2015 - Metasediment Rock/08 - Lonely Vågan.flac
Pre-gap length : 00:02:27
Track gain : -3.68 dB
Peak : 0.944336
CRC32 hash (test run) : 79A38BFB
CRC32 hash : 79A38BFB
CRC32 hash (skip zero) : 2F07A8A6
AccurateRip v1 signature : 97C8E04B
AccurateRip v2 signature : AD59BD2D
->Track not present in AccurateRip database.
Statistics
Read error : 0
Jitter error (maybe fixed) : 0
Retry sector count : 0
Damaged sector count : 0
No errors occurred
End of status report
-----BEGIN XLD SIGNATURE-----
qsuoagMMNVpzz2PwZu.kQmXzx5Vt3YcTBrfQefmmV1cHY0htk7dAALf1T5WWuyNZTJqi13Gr.L6nwc8FpHbp26XeUmMkZBUZfb7WjE0
-----END XLD SIGNATURE-----
 
Содержание индексной карты (.CUE)
TITLE "Metasediment Rock"
PERFORMER "Snik"
CATALOG 5609063003437
REM GENRE "Free Jazz"
REM DATE "2015"
REM DISCNUMBER 1
REM TOTALDISCS 1
REM DISCID 7509D808
REM REPLAYGAIN_ALBUM_GAIN -3.77 dB
REM REPLAYGAIN_ALBUM_PEAK 0.944427
FILE "01 - Niks.flac" WAVE
TRACK 01 AUDIO
TITLE "Niks"
PERFORMER "Snik"
ISRC PTNF11509289
REM COMMENT "Recorded at Wolf Valley Studios February 11th and 12th 2014"
REM REPLAYGAIN_TRACK_GAIN -1.00 dB
REM REPLAYGAIN_TRACK_PEAK 0.944336
INDEX 01 00:00:00
TRACK 02 AUDIO
TITLE "Haestbaett"
PERFORMER "Snik"
ISRC PTNF11509290
REM COMMENT "Recorded at Wolf Valley Studios February 11th and 12th 2014"
REM REPLAYGAIN_TRACK_GAIN -5.62 dB
REM REPLAYGAIN_TRACK_PEAK 0.944427
INDEX 00 06:39:64
FILE "02 - Haestbaett.flac" WAVE
INDEX 01 00:00:00
TRACK 03 AUDIO
TITLE "Skog"
PERFORMER "Snik"
ISRC PTNF11509292
REM COMMENT "Recorded at Wolf Valley Studios February 11th and 12th 2014"
REM REPLAYGAIN_TRACK_GAIN -2.32 dB
REM REPLAYGAIN_TRACK_PEAK 0.944305
INDEX 00 04:48:43
FILE "03 - Skog.flac" WAVE
INDEX 01 00:00:00
TRACK 04 AUDIO
TITLE "Durham"
PERFORMER "Snik"
ISRC PTNF11509292
REM COMMENT "Recorded at Wolf Valley Studios February 11th and 12th 2014"
REM REPLAYGAIN_TRACK_GAIN -4.76 dB
REM REPLAYGAIN_TRACK_PEAK 0.944305
INDEX 00 00:00:02
FILE "04 - Durham.flac" WAVE
INDEX 01 00:00:00
TRACK 05 AUDIO
TITLE "Pausefisk"
PERFORMER "Snik"
ISRC PTNF11509293
REM COMMENT "Recorded at Wolf Valley Studios February 11th and 12th 2014"
REM REPLAYGAIN_TRACK_GAIN -3.57 dB
REM REPLAYGAIN_TRACK_PEAK 0.944336
INDEX 00 04:30:49
FILE "05 - Pausefisk.flac" WAVE
INDEX 01 00:00:00
TRACK 06 AUDIO
TITLE "Knis"
PERFORMER "Snik"
ISRC PTNF11509294
REM COMMENT "Recorded at Wolf Valley Studios February 11th and 12th 2014"
REM REPLAYGAIN_TRACK_GAIN 0.39 dB
REM REPLAYGAIN_TRACK_PEAK 0.665680
INDEX 00 07:39:37
FILE "06 - Knis.flac" WAVE
INDEX 01 00:00:00
TRACK 07 AUDIO
TITLE "Sneakpeak"
PERFORMER "Snik"
ISRC PTNF11509295
REM COMMENT "Recorded at Wolf Valley Studios February 11th and 12th 2014"
REM REPLAYGAIN_TRACK_GAIN -3.95 dB
REM REPLAYGAIN_TRACK_PEAK 0.944244
INDEX 00 03:21:74
FILE "07 - Sneakpeak.flac" WAVE
INDEX 01 00:00:00
TRACK 08 AUDIO
TITLE "Lonely Vagan"
PERFORMER "Snik"
ISRC PTNF11509296
REM COMMENT "Recorded at Wolf Valley Studios February 11th and 12th 2014"
REM REPLAYGAIN_TRACK_GAIN -3.68 dB
REM REPLAYGAIN_TRACK_PEAK 0.944336
INDEX 00 04:06:33
FILE "08 - Lonely Vagan.flac" WAVE
INDEX 01 00:00:00
 
Об альбоме
The Clean Feed imprint continues to unearth new outfits from Scandinavia deserving wider appreciation. Among the latest is Snik, a predominantly Norwegian quartet which includes bassist Ole Morten Vågan, best known for his tenure in saxophonist Joshua Redman's Trio. Completing the line up are young trombonist Kristoffer Kompen, who contributes half a dozen of the eight charts, saxophonist Kristoffer Berre Alberts, familiar from the group Cortex, and Swedish drummer Erik Nylander.
At times, the New York Contemporary Five comes to mind, as the band takes a cool approach to the '60s New Thing bag, while at others it's '50s hard bop which they evoke. They cover a wide range of bases and the inside/outside dichotomy is reflected in the compositions as well as playing. Kompen roams from effortlessly lyrical, befitting someone who has paid homage to swing era icon Jack Teagarden, to raw and blustery, while Alberts walks the boundary between freedom and tonality, and boasts a wonderful impassioned vibrato on occasion. Vagan and Nylander mediate the frequently pacey meters with aplomb, tight and precise.
The smoothly executed arrangements make the most of band's resources. Most fascinating are the cuts where they subvert expectations. Interestingly the disc starts with one of the least conventional tracks. "niks" by bassist Vagan, has a mournful stately folk-tinged theme which blossoms out into a stew of exhalations, droney arco, cymbal scrapes. It's an intriguing opener, spacious, with the author's knotty physical bass and Alberts' controlled overblowing.
Unfortunately nothing afterwards quite delivers the same punch. However there are some unusual juxtapositions which capture the attention. "durham" sounds like a close relative of "'Round Midnight" at first blush with Kompen's obligato shadowing Alberts' alto. But then comes a pizzicato bass strum with fierce alto saxophone gales which changes the character of the piece entirely, before a return to the initial gambit. Such antics may provide fertile ground for future investigation. (John Sharpe, AllAboutJazz)
 
Состав

Kristoffer Kompen - trombone, compositions (2-7)
Kristoffer Berre Alberts - saxophones
Ole Morten Vågan - double bass, compositions (1, 8)
Erik Nylander - drums
По всем вопросам пишите личное сообщение пользователю M0p94ok.
17:15
144
Нет комментариев. Ваш будет первым!