Вы используете незарегистрированную версию компонента "Вкладки"!

Поиск

(Avant-Garde Jazz, Nordic Brass Band) The Brazz Brothers & Povl Dissing - Aftenvind - 2000, FLAC (tracks+.cue), lossless

(Avant-Garde Jazz, Nordic Brass Band) The Brazz Brothers & Povl Dissing - Aftenvind - 2000, FLAC (tracks+.cue), lossless
Треклист:
The Brazz Brothers & Povl Dissing / Aftenvind
Жанр: Avant-Garde Jazz, Nordic Brass Band
Страна-производитель диска: Norway
Год издания: 2000
Издатель (лейбл): BrazzRecords
Номер по каталогу: BBRCD 3003
Страна: Norway
Аудиокодек: FLAC (*.flac)
Тип рипа: tracks+.cue
Битрейт аудио: lossless
Продолжительность: 00:51:27
Источник (релизер): Собственный рип оригинального диска
Наличие сканов в содержимом раздачи: нет
Треклист:
01. Aldrig For [00:04:15]
02. Da Jeg Modte Dig [00:08:13]
03. Aftenvind [00:04:01]
04. Sorte Sol (Tango Jalousie) [00:05:27]
05. Pusteovelse [00:04:40]
06. Hymne Til Natten [00:06:26]
07. Vals Med Vampyr [00:03:20]
08. Pjerrot [00:04:27]
09. Skynd Dig Langsomt [00:05:55]
10. Go' Nu Nat [00:04:40]
 
Лог создания рипа
Exact Audio Copy V1.0 beta 3 from 29. August 2011
Отчёт EAC об извлечении, выполненном 28. августа 2012, 18:10
The Brazz Brothers & Povl Dissing / Aftenvind
Дисковод: hp DVD A DS8A5LH Adapter: 0 ID: 1
Режим чтения : Достоверность
Использование точного потока : Да
Отключение кэша аудио : Да
Использование указателей C2 : Нет
Коррекция смещения при чтении : 6
Способность читать области Lead-in и Lead-out : Нет
Заполнение пропущенных сэмплов тишиной : Да
Удаление блоков с тишиной в начале и конце : Нет
При вычислениях CRC использовались нулевые сэмплы : Да
Интерфейс : Встроенный Win32-интерфейс для Win NT/2000
Обработка зазоров : Добавлено к предыдущему треку
Выходной формат : Пользовательский кодировщик
Выбранный битрейт : 896 kBit/s
Качество : Высокий
Добавление ID3-тега : Нет
Утилита сжатия : C:\Program Files\Exact Audio Copy\Flac\flac.exe
Дополнительные параметры : -V -8 -T "Genre=%genre%" -T "Artist=%artist%" -T "Title=%title%" -T "Album=%albumtitle%" -T "Date=%year%" -T "Tracknumber=%tracknr%" -T "Comment=%comment%" %source%
TOC извлечённого CD
Трек | Старт | Длительность | Начальный сектор | Конечный сектор
---------------------------------------------------------------------
1 | 0:00.00 | 4:15.05 | 0 | 19129
2 | 4:15.05 | 8:13.30 | 19130 | 56134
3 | 12:28.35 | 4:01.60 | 56135 | 74269
4 | 16:30.20 | 5:27.02 | 74270 | 98796
5 | 21:57.22 | 4:40.05 | 98797 | 119801
6 | 26:37.27 | 6:26.58 | 119802 | 148809
7 | 33:04.10 | 3:20.20 | 148810 | 163829
8 | 36:24.30 | 4:27.05 | 163830 | 183859
9 | 40:51.35 | 5:55.05 | 183860 | 210489
10 | 46:46.40 | 4:40.52 | 210490 | 231541
Трек 1
Имя файла D:\Torrents\Sharing is not Piracy\The Brazz Brothers\2000 - Aftenvind\01 Aldrig Før.wav
Длина предзазора 0:00:02.00
Пиковый уровень 100.0 %
Скорость извлечения 2.7 X
Качество трека 100.0 %
CRC теста 4B5CDF73
CRC копии 4B5CDF73
Точное извлечение (достоверность 6) [7656F691] (AR v1)
Копирование... OK
Трек 2
Имя файла D:\Torrents\Sharing is not Piracy\The Brazz Brothers\2000 - Aftenvind\02 Da Jeg Mødte Dig.wav
Пиковый уровень 100.0 %
Скорость извлечения 3.4 X
Качество трека 100.0 %
CRC теста 7290EC99
CRC копии 7290EC99
Точное извлечение (достоверность 6) [E89CBFEC] (AR v1)
Копирование... OK
Трек 3
Имя файла D:\Torrents\Sharing is not Piracy\The Brazz Brothers\2000 - Aftenvind\03 Aftenvind.wav
Пиковый уровень 92.6 %
Скорость извлечения 3.6 X
Качество трека 100.0 %
CRC теста 8105BE04
CRC копии 8105BE04
Точное извлечение (достоверность 6) [935B2BE8] (AR v1)
Копирование... OK
Трек 4
Имя файла D:\Torrents\Sharing is not Piracy\The Brazz Brothers\2000 - Aftenvind\04 Sorte Sol (Tango Jalousie).wav
Пиковый уровень 100.0 %
Скорость извлечения 3.6 X
Качество трека 99.9 %
CRC теста FE4A613E
CRC копии FE4A613E
Точное извлечение (достоверность 6) [A08FBE4A] (AR v1)
Копирование... OK
Трек 5
Имя файла D:\Torrents\Sharing is not Piracy\The Brazz Brothers\2000 - Aftenvind\05 Pusteøvelse.wav
Пиковый уровень 75.5 %
Скорость извлечения 4.2 X
Качество трека 100.0 %
CRC теста 06EB106E
CRC копии 06EB106E
Точное извлечение (достоверность 6) [ECCEFE7D] (AR v1)
Копирование... OK
Трек 6
Имя файла D:\Torrents\Sharing is not Piracy\The Brazz Brothers\2000 - Aftenvind\06 Hymne Til Natten.wav
Пиковый уровень 100.0 %
Скорость извлечения 4.2 X
Качество трека 99.9 %
CRC теста 141D32A5
CRC копии 141D32A5
Точное извлечение (достоверность 6) [CD392927] (AR v1)
Копирование... OK
Трек 7
Имя файла D:\Torrents\Sharing is not Piracy\The Brazz Brothers\2000 - Aftenvind\07 Vals Med Vampyr.wav
Пиковый уровень 100.0 %
Скорость извлечения 4.5 X
Качество трека 100.0 %
CRC теста C4A442A8
CRC копии C4A442A8
Точное извлечение (достоверность 6) [8E06F53F] (AR v1)
Копирование... OK
Трек 8
Имя файла D:\Torrents\Sharing is not Piracy\The Brazz Brothers\2000 - Aftenvind\08 Pjerrot.wav
Пиковый уровень 99.9 %
Скорость извлечения 4.8 X
Качество трека 100.0 %
CRC теста B4B5839D
CRC копии B4B5839D
Точное извлечение (достоверность 6) [9F508D5C] (AR v1)
Копирование... OK
Трек 9
Имя файла D:\Torrents\Sharing is not Piracy\The Brazz Brothers\2000 - Aftenvind\09 Skynd Dig Langsomt.wav
Пиковый уровень 100.0 %
Скорость извлечения 5.2 X
Качество трека 100.0 %
CRC теста EB937296
CRC копии EB937296
Точное извлечение (достоверность 6) [0FA4F8F6] (AR v1)
Копирование... OK
Трек 10
Имя файла D:\Torrents\Sharing is not Piracy\The Brazz Brothers\2000 - Aftenvind\10 Go' Nu Nat.wav
Пиковый уровень 96.9 %
Скорость извлечения 5.3 X
Качество трека 100.0 %
CRC теста 506B4203
CRC копии 506B4203
Точное извлечение (достоверность 6) [244D2CF6] (AR v1)
Копирование... OK
Все треки извлечены точно
Ошибок не произошло
Конец отчёта
==== Контрольная сумма отчёта 1D824DF516BC8A2EC7800CAC405B1FC6DA7EC19FC67C72450962690C999DF1DA ====
 
Содержание индексной карты (.CUE)
REM GENRE Jazz
REM DATE 2000
REM DISCID 9F0C0F0A
REM COMMENT "ExactAudioCopy v1.0b3"
PERFORMER "The Brazz Brothers & Povl Dissing"
TITLE "Aftenvind"
FILE "01 Aldrig For.wav" WAVE
TRACK 01 AUDIO
TITLE "Aldrig For"
PERFORMER "The Brazz Brothers & Povl Dissing"
ISRC NOBBF0001010
INDEX 01 00:00:00
FILE "02 Da Jeg Modte Dig.wav" WAVE
TRACK 02 AUDIO
TITLE "Da Jeg Modte Dig"
PERFORMER "The Brazz Brothers & Povl Dissing"
ISRC NOBBF0001020
INDEX 01 00:00:00
FILE "03 Aftenvind.wav" WAVE
TRACK 03 AUDIO
TITLE "Aftenvind"
PERFORMER "The Brazz Brothers & Povl Dissing"
ISRC NOBBF0001030
INDEX 01 00:00:00
FILE "04 Sorte Sol (Tango Jalousie).wav" WAVE
TRACK 04 AUDIO
TITLE "Sorte Sol (Tango Jalousie)"
PERFORMER "The Brazz Brothers & Povl Dissing"
ISRC NOBBF0001040
INDEX 01 00:00:00
FILE "05 Pusteovelse.wav" WAVE
TRACK 05 AUDIO
TITLE "Pusteovelse"
PERFORMER "The Brazz Brothers & Povl Dissing"
ISRC NOBBF0001050
INDEX 01 00:00:00
FILE "06 Hymne Til Natten.wav" WAVE
TRACK 06 AUDIO
TITLE "Hymne Til Natten"
PERFORMER "The Brazz Brothers & Povl Dissing"
ISRC NOBBF0001060
INDEX 01 00:00:00
FILE "07 Vals Med Vampyr.wav" WAVE
TRACK 07 AUDIO
TITLE "Vals Med Vampyr"
PERFORMER "The Brazz Brothers & Povl Dissing"
ISRC NOBBF0001070
INDEX 01 00:00:00
FILE "08 Pjerrot.wav" WAVE
TRACK 08 AUDIO
TITLE "Pjerrot"
PERFORMER "The Brazz Brothers & Povl Dissing"
ISRC NOBBF0001080
INDEX 01 00:00:00
FILE "09 Skynd Dig Langsomt.wav" WAVE
TRACK 09 AUDIO
TITLE "Skynd Dig Langsomt"
PERFORMER "The Brazz Brothers & Povl Dissing"
ISRC NOBBF0001090
INDEX 01 00:00:00
FILE "10 Go' Nu Nat.wav" WAVE
TRACK 10 AUDIO
TITLE "Go' Nu Nat"
PERFORMER "The Brazz Brothers & Povl Dissing"
ISRC NOBBF0001100
INDEX 01 00:00:00
 
Об исполнителе (группе)
The Brazz Brothers - известный в Скандинавии коллектив из маленького норвежского городка Лангевог на острове Сула, знаменитый своими импровизациями, отвязным юмором и курсами "Играй джаз без знания нот" для членов школьных духовых оркестров. The Brazz Brothers дают, в среднем, 120 концертов в год, и не только на родине, среди гор и фьордов, но и в Штатах, Европе, некоторых азиатских и африканских странах.
 
Об альбоме (сборнике)
Официальная аудиозапись концерта на копенгагенской площадке Jazzhouse, 9 декабря 1999 года. Характерный вокал приглашенного датского исполнителя-трубадура Поуля Диссинга.
 
Состав
Jarle Førde: труба/флюгельгорн
Jan Magne Førde: труба/флюгельгорн
Runar Tafjord: валторна
Helge Førde: труба
Stein Erik Tafjord: туба
Kenneth Ekornes: ударные (с 2009 г.)
Any questions -> support@pro-jazz.com. По всем вопросам пишите -> support@pro-jazz.com
03:27
144
Нет комментариев. Ваш будет первым!