Вы используете незарегистрированную версию компонента "Вкладки"!

Поиск

(avant-garde jazz) New and Used - Souvenir - 1990, FLAC (tracks+.cue), lossless

(avant-garde jazz) New and Used - Souvenir - 1990, FLAC (tracks+.cue), lossless
Треклист:
New and Used - Souvenir
Жанр: avant-garde jazz
Год выпуска диска: 1990
Производитель диска: USA
Аудио кодек: FLAC
Тип рипа: tracks+.cue
Битрейт аудио: lossless
Продолжительность: 64:33
Трэклист:
1. Slow Boat to Mechanicsville
2. Red Letter
3. Cows
4. Souvenir
5. Lazy Brushes
6. Safe at Home
7. Trifecta
8. Paradox
9. Hagia Sophia
10. Kerney
Доп. информация: Писать что-либо о составе глупо - или они все Вам известны, или... Вам нечего делать на этой "ветке"
Personnel:
Andy Laster (alto & baritone saxophones);
Dave Douglas (trumpet);
Mark Feldman (violin);
Kermit Driscoll (electric & acoustic basses);
Tom Rainey (drums).
Источник: dasaro
 
Отчёт EAC
Exact Audio Copy V0.99 prebeta 4 from 23. January 2008
EAC extraction logfile from 22. May 2009, 0:00
New & Used / Souvenir
Used drive : Optiarc DVD RW AD-7200A Adapter: 0 ID: 1
Read mode : Secure
Utilize accurate stream : Yes
Defeat audio cache : Yes
Make use of C2 pointers : No
Read offset correction : 48
Overread into Lead-In and Lead-Out : No
Fill up missing offset samples with silence : Yes
Delete leading and trailing silent blocks : No
Null samples used in CRC calculations : Yes
Used interface : Installed external ASPI interface
Gap handling : Appended to previous track
Used output format : User Defined Encoder
Selected bitrate : 640 kBit/s
Quality : High
Add ID3 tag : No
Command line compressor : C:\Program Files\Exact Audio Copy\flac.exe
Additional command line options : -8 -A tukey(0.25) -A gauss(0.1875) -b 4096 -V -T "artist=%a" -T "title=%t" -T "album=%g" -T "date=%y" -T "tracknumber=%n" -T "genre=%m" %s --sector-align
TOC of the extracted CD
Track | Start | Length | Start sector | End sector
---------------------------------------------------------
1 | 0:00.00 | 7:33.70 | 0 | 34044
2 | 7:33.70 | 6:21.63 | 34045 | 62682
3 | 13:55.58 | 4:37.65 | 62683 | 83522
4 | 18:33.48 | 6:03.25 | 83523 | 110772
5 | 24:36.73 | 6:46.35 | 110773 | 141257
6 | 31:23.33 | 7:37.55 | 141258 | 175587
7 | 39:01.13 | 5:41.52 | 175588 | 201214
8 | 44:42.65 | 6:27.10 | 201215 | 230249
9 | 51:10.00 | 4:51.68 | 230250 | 252142
10 | 56:01.68 | 9:02.25 | 252143 | 292817
Track 1
Filename H:\WORK\New & Used - Souvenir\01 - New & Used - Slow Boat To Mechanicsville .wav
Pre-gap length 0:00:02.00
Peak level 85.4 %
Track quality 99.9 %
Test CRC 78EE2F0F
Copy CRC 78EE2F0F
Copy OK
Track 2
Filename H:\WORK\New & Used - Souvenir\02 - New & Used - Red Letter .wav
Peak level 84.6 %
Track quality 100.0 %
Test CRC 5796473A
Copy CRC 5796473A
Copy OK
Track 3
Filename H:\WORK\New & Used - Souvenir\03 - New & Used - Cows .wav
Pre-gap length 0:00:00.01
Peak level 95.9 %
Track quality 100.0 %
Test CRC 97124C44
Copy CRC 97124C44
Copy OK
Track 4
Filename H:\WORK\New & Used - Souvenir\04 - New & Used - Souvenir .wav
Peak level 89.2 %
Track quality 100.0 %
Test CRC B6F0235F
Copy CRC B6F0235F
Copy OK
Track 5
Filename H:\WORK\New & Used - Souvenir\05 - New & Used - Lazy Brushes .wav
Peak level 79.5 %
Track quality 100.0 %
Test CRC BE9AE697
Copy CRC BE9AE697
Copy OK
Track 6
Filename H:\WORK\New & Used - Souvenir\06 - New & Used - Safe At Home .wav
Peak level 98.4 %
Track quality 100.0 %
Test CRC 1B548AC4
Copy CRC 1B548AC4
Copy OK
Track 7
Filename H:\WORK\New & Used - Souvenir\07 - New & Used - Trifecta .wav
Peak level 100.0 %
Track quality 99.9 %
Test CRC A9E77A81
Copy CRC A9E77A81
Copy OK
Track 8
Filename H:\WORK\New & Used - Souvenir\08 - New & Used - Paradox .wav
Peak level 100.0 %
Track quality 100.0 %
Test CRC BFD9C8DC
Copy CRC BFD9C8DC
Copy OK
Track 9
Filename H:\WORK\New & Used - Souvenir\09 - New & Used - Hagia Sophia .wav
Peak level 85.7 %
Track quality 99.9 %
Test CRC A33F4807
Copy CRC A33F4807
Copy OK
Track 10
Filename H:\WORK\New & Used - Souvenir\10 - New & Used - Kerney .wav
Peak level 72.3 %
Track quality 100.0 %
Test CRC 0F5CBFFB
Copy CRC 0F5CBFFB
Copy OK
No errors occurred
End of status report
Any questions -> support@pro-jazz.com. По всем вопросам пишите -> support@pro-jazz.com
11:02
143
Нет комментариев. Ваш будет первым!