Поиск

(Avant-Garde Jazz) Muhal Richard Abrams - Mama and Daddy - 1980, FLAC (tracks+.cue) lossless

Треклист:
Muhal Richard Abrams - Mama and Daddy
Жанр: Avant-Garde Jazz
Страна-производитель диска: Italy
Год издания диска: 1980
Издатель (лейбл): Black Saint Records
Номер по каталогу: BSR 120-41-2
Страна: Italy
Аудио кодек: FLAC (*.flac)
Тип рипа: tracks+.cue
Битрейт аудио: lossless
Продолжительность: 31:37
Источник (релизер): собственный рип с оригинального диска
Наличие сканов в содержимом раздачи: да
Треклист:
01. FAFCA 10:09
02. BALU 12:09
03. MALIC 10:57
04. MAMA AND DADDY 10:33
 
Лог создания рипа
Exact Audio Copy V0.99 prebeta 5 from 4. May 2009
EAC extraction logfile from 13. October 2010, 19:50
Muhal Richard Abrams / Mama and Daddy
Used drive : TSSTcorpCDDVDW SH-S222A Adapter: 1 ID: 0
Read mode : Secure
Utilize accurate stream : Yes
Defeat audio cache : Yes
Make use of C2 pointers : No
Read offset correction : 6
Overread into Lead-In and Lead-Out : No
Fill up missing offset samples with silence : Yes
Delete leading and trailing silent blocks : No
Null samples used in CRC calculations : Yes
Used interface : Native Win32 interface for Win NT & 2000
Gap handling : Appended to previous track
Used output format : User Defined Encoder
Selected bitrate : 768 kBit/s
Quality : High
Add ID3 tag : No
Command line compressor : C:\tool\Audio\Exact Audio Copy\FLAC\FLAC.EXE
Additional command line options : -V -8 -T "ARTIST=%a" -T "TITLE=%t" -T "ALBUM=%g" -T "TRACKNUMBER=%n" -T "GENRE=%m" %s
TOC of the extracted CD
Track | Start | Length | Start sector | End sector
---------------------------------------------------------
1 | 0:00.33 | 8:09.15 | 33 | 36722
2 | 8:09.48 | 7:47.30 | 36723 | 71777
3 | 15:57.03 | 8:10.05 | 71778 | 108532
4 | 24:07.08 | 7:31.25 | 108533 | 142382
Track 1
Filename C:\! RUTRACKER\ru up\Muhal Richard Abrams - Mama and Daddy\01 - Fafca.wav
Pre-gap length 0:00:02.33
Peak level 90.2 %
Track quality 100.0 %
Test CRC EA1AD70F
Copy CRC EA1AD70F
Accurately ripped (confidence 2) [ADE17AE1]
Copy OK
Track 2
Filename C:\! RUTRACKER\ru up\Muhal Richard Abrams - Mama and Daddy\02 - Balu.wav
Peak level 80.1 %
Track quality 100.0 %
Test CRC 6F6630ED
Copy CRC 6F6630ED
Accurately ripped (confidence 2) [22D08EEE]
Copy OK
Track 3
Filename C:\! RUTRACKER\ru up\Muhal Richard Abrams - Mama and Daddy\03 - Malic.wav
Peak level 62.0 %
Track quality 100.0 %
Test CRC F64255BF
Copy CRC F64255BF
Accurately ripped (confidence 2) [77A94BA6]
Copy OK
Track 4
Filename C:\! RUTRACKER\ru up\Muhal Richard Abrams - Mama and Daddy\04 - Mama and Daddy.wav
Peak level 71.3 %
Track quality 100.0 %
Test CRC A578AC45
Copy CRC A578AC45
Accurately ripped (confidence 2) [536EB0A2]
Copy OK
All tracks accurately ripped
No errors occurred
End of status report
 
Содержание индексной карты (.CUE)
REM GENRE Jazz
REM DATE 1980
REM DISCID 39076A04
REM COMMENT "ExactAudioCopy v0.99pb5"
PERFORMER "Muhal Richard Abrams"
TITLE "Mama and Daddy"
FILE "01 - Fafca.wav" WAVE
TRACK 01 AUDIO
TITLE "Fafca"
PERFORMER "Muhal Richard Abrams"
PREGAP 00:00:33
INDEX 01 00:00:00
FILE "02 - Balu.wav" WAVE
TRACK 02 AUDIO
TITLE "Balu"
PERFORMER "Muhal Richard Abrams"
INDEX 01 00:00:00
FILE "03 - Malic.wav" WAVE
TRACK 03 AUDIO
TITLE "Malic"
PERFORMER "Muhal Richard Abrams"
INDEX 01 00:00:00
FILE "04 - Mama and Daddy.wav" WAVE
TRACK 04 AUDIO
TITLE "Mama and Daddy"
PERFORMER "Muhal Richard Abrams"
INDEX 01 00:00:00
Доп. информация:
Recorded June 16 & 19, 1980 at Platinum Factory Recording Studio, Brooklyn, New York
Engineer: Lindzay Johnson
 
Об альбоме (сборнике)
This was a first-rate big band/large group session from 1980, with Muhal Richard Abrams' compositions being played by a masterful ensemble which included French horn and tuba in its instrumental mix. There were wonderful solos, dashing arrangements and fiery rhythm support from Thurman Barker on drums, marimba and percussion, with Andrew Cyrille adding additional percussive assistance. The group also featured Baikida Carroll on trumpet and flugelhorn, Wallace McMillan on various reeds, violinist Leroy Jenkins, bassist Brian Smith, Abrams on keyboards, trombonist George Lewis, Bob Stewart on tuba and Vincent Chancey on French horn. They presented adventurous, disciplined, frequently exciting music.
 
Состав
Baikida Carroll - trumpet, flugelhorn
George Lewis - trombone
Wallace McMillan - alto and tenor saxophones, flute, conga drum
Vincent Chancey - french horn
Bob Stewart - tuba
Leroy Jenkins - violin
Muhal Richard Abrams - piano, synthesizer
Brian Smith - bass
Andrew Cyrille - percussion
Thurman Barker - drums, marimba, percussion
Any questions - support@pro-jazz.com
To become a power user - read FAQ.
04:00
449
Нет комментариев. Ваш будет первым!