Вы используете незарегистрированную версию компонента "Вкладки"!

Поиск

(Avant-Garde Jazz, Modern) Patrick Zimmerli - Twelve Sacred Dances - 1998, FLAC (image+.cue), lossless

(Avant-Garde Jazz, Modern) Patrick Zimmerli - Twelve Sacred Dances - 1998, FLAC (image+.cue), lossless
Треклист:
Patrick Zimmerli - Twelve Sacred Dances
Жанр: Avant-Garde Jazz, Modern
Год выпуска диска: 1998
Производитель диска: USA (Arabesque)
Аудио кодек: FLAC
Тип рипа: image+.cue
Битрейт аудио: lossless
Продолжительность: 0:51:04
01. The Tenor Alone 03:51
02. Introit 04:04
03. Submersion I 02:49
04. Fragment A 00:21
05. Introit II (Piano Solo) 05:22
06. Submersion II 02:12
07. Anaptyxis 05:21
08. The Bass Alone - Introit III (Tenor Solo) 08:54
09. Fragment B 00:13
10. Submersion III 02:54
11. Epenthesis 08:19
12. Finale (Recessional: The Drum Alone) 06:40
Ethan Iverson - Piano
Patrick Zimmerli - Sax (Tenor), Liner Notes, Main Performer
John Hollenbeck - Percussion, Drums
Сканы внутри
 
LOG
Exact Audio Copy V0.99 prebeta 3 from 28. July 2007
EAC extraction logfile from 6. February 2009, 8:45
Patrick Zimmerli / Twelve Sacred Dances
Used drive : TSSTcorpCDDVDW SE-S204N Adapter: 6 ID: 4
Read mode : Secure
Utilize accurate stream : Yes
Defeat audio cache : Yes
Make use of C2 pointers : No
Read offset correction : 6
Overread into Lead-In and Lead-Out : No
Fill up missing offset samples with silence : Yes
Delete leading and trailing silent blocks : No
Null samples used in CRC calculations : Yes
Used interface : Installed external ASPI interface
Used output format : User Defined Encoder
Selected bitrate : 768 kBit/s
Quality : High
Add ID3 tag : No
Command line compressor : H:\Program Files\Exact Audio Copy\FLAC\FLAC.EXE
Additional command line options : -6 -V -T "ARTIST=%a" -T "TITLE=%t" -T "ALBUM=%g" -T "DATE=%y" -T "TRACKNUMBER=%n" -T "GENRE=%m" -T "COMMENT=%e" %s -o %d
TOC of the extracted CD
Track | Start | Length | Start sector | End sector
---------------------------------------------------------
1 | 0:00.00 | 3:51.52 | 0 | 17376
2 | 3:51.52 | 4:04.20 | 17377 | 35696
3 | 7:55.72 | 2:49.03 | 35697 | 48374
4 | 10:45.00 | 0:21.00 | 48375 | 49949
5 | 11:06.00 | 5:22.41 | 49950 | 74140
6 | 16:28.41 | 2:12.34 | 74141 | 84074
7 | 18:41.00 | 5:21.30 | 84075 | 108179
8 | 24:02.30 | 8:54.52 | 108180 | 148281
9 | 32:57.07 | 0:13.17 | 148282 | 149273
10 | 33:10.24 | 2:54.32 | 149274 | 162355
11 | 36:04.56 | 8:19.05 | 162356 | 199785
12 | 44:23.61 | 6:40.59 | 199786 | 229844
Range status and errors
Selected range
Filename C:\TTT\Patrick Zimmerli - Twelve Sacred Dances\Patrick Zimmerli - Twelve Sacred Dances.wav
Peak level 98.9 %
Range quality 99.9 %
Test CRC D55C4C3C
Copy CRC D55C4C3C
Copy OK
No errors occurred
AccurateRip summary
Track 1 not present in database
Track 2 not present in database
Track 3 not present in database
Track 4 not present in database
Track 5 not present in database
Track 6 not present in database
Track 7 not present in database
Track 8 not present in database
Track 9 not present in database
Track 10 not present in database
Track 11 not present in database
Track 12 not present in database
None of the tracks are present in the AccurateRip database
End of status report
Any questions -> support@pro-jazz.com. По всем вопросам пишите -> support@pro-jazz.com
07:56
155
Нет комментариев. Ваш будет первым!