Вы используете незарегистрированную версию компонента "Вкладки"!

Поиск

(Avant-Garde Jazz, Modern jazz, Improvisation) Guillaume Roy, Vincent Courtois, Claude Tchamitchian - Amarco - 2011, FLAC (tracks+.cue), lossless

Треклист:
Guillaume Roy, Vincent Courtois, Claude Tchamitchian - Amarco

Жанр: Avant-Garde Jazz, Modern jazz, Improvisation
Страна-производитель диска: France
Год издания диска: 2011
Издатель (лейбл): emouvance
Номер по каталогу: 1032
Аудиокодек: FLAC (*.flac)
Тип рипа: tracks+.cue
Битрейт аудио: lossless
Продолжительность: 00:44:49
Источник (релизер): dtromp
Наличие сканов в содержимом раздачи: да
01. Les Palais Oublies [04:43]
02. Amarco [04:15]
03. Champ Contre Champ [04:19]
04. Play Ground [04:56]
05. Petite Conversation Entre Amis [01:44]
06. Question D'avenir [07:28]
07. Tactilographie [02:51]
08. Wild Town [05:46]
09. Time To Change [02:29]
10. Lune Objective [02:27]
11. Le Souffle De l'Ivresse [03:51]
 
Лог создания рипа
Exact Audio Copy V1.0 beta 1 from 15. November 2010
EAC extraction logfile from 26. May 2011, 7:49
Guillaume Roy, Vincent Courtois, Claude Tchamitchian / Amarco
Used drive : PLEXTOR DVDR PX-860A Adapter: 0 ID: 0
Read mode : Secure
Utilize accurate stream : Yes
Defeat audio cache : Yes
Make use of C2 pointers : No
Read offset correction : 96
Overread into Lead-In and Lead-Out : No
Fill up missing offset samples with silence : Yes
Delete leading and trailing silent blocks : No
Null samples used in CRC calculations : Yes
Used interface : Native Win32 interface for Win NT & 2000
Gap handling : Appended to previous track
Used output format : User Defined Encoder
Selected bitrate : 1024 kBit/s
Quality : High
Add ID3 tag : No
Command line compressor : C:\Program Files\Exact Audio Copy\flac.exe
Additional command line options : -8 -V -T "ARTIST=%a" -T "TITLE=%t" -T "ALBUM=%g" -T "DATE=%y" -T "TRACKNUMBER=%n" -T "TOTALTRACKS=%x" -T "GENRE=%m" -T "ALBUM ARTIST=%v" -T "ALBUMARTIST=%v" -T "COMMENT=EAC V1.0 beta 1, Secure Mode, Test & Copy, AccurateRip
TOC of the extracted CD
Track | Start | Length | Start sector | End sector
---------------------------------------------------------
1 | 0:00.00 | 4:43.51 | 0 | 21275
2 | 4:43.51 | 4:15.31 | 21276 | 40431
3 | 8:59.07 | 4:19.64 | 40432 | 59920
4 | 13:18.71 | 4:56.71 | 59921 | 82191
5 | 18:15.67 | 1:44.45 | 82192 | 90036
6 | 20:00.37 | 7:28.70 | 90037 | 123706
7 | 27:29.32 | 2:51.17 | 123707 | 136548
8 | 30:20.49 | 5:46.67 | 136549 | 162565
9 | 36:07.41 | 2:29.16 | 162566 | 173756
10 | 38:36.57 | 2:27.25 | 173757 | 184806
11 | 41:04.07 | 3:51.34 | 184807 | 202165
Track 1
Filename S:\DL\Guillaume Roy, Vincent Courtois, Claude Tchamitchian - Amarco (2011) [FLAC]\01 - Les Palais Oublies.wav
Pre-gap length 0:00:02.00
Peak level 98.1 %
Extraction speed 4.5 X
Track quality 100.0 %
Test CRC 25032FE3
Copy CRC 25032FE3
Track not present in AccurateRip database
Copy OK
Track 2
Filename S:\DL\Guillaume Roy, Vincent Courtois, Claude Tchamitchian - Amarco (2011) [FLAC]\02 - Amarco.wav
Pre-gap length 0:00:00.02
Peak level 98.1 %
Extraction speed 4.9 X
Track quality 100.0 %
Test CRC B28F1383
Copy CRC B28F1383
Track not present in AccurateRip database
Copy OK
Track 3
Filename S:\DL\Guillaume Roy, Vincent Courtois, Claude Tchamitchian - Amarco (2011) [FLAC]\03 - Champ Contre Champ.wav
Pre-gap length 0:00:00.01
Peak level 98.1 %
Extraction speed 5.4 X
Track quality 100.0 %
Test CRC 038DB113
Copy CRC 038DB113
Track not present in AccurateRip database
Copy OK
Track 4
Filename S:\DL\Guillaume Roy, Vincent Courtois, Claude Tchamitchian - Amarco (2011) [FLAC]\04 - Play Ground.wav
Pre-gap length 0:00:00.01
Peak level 98.0 %
Extraction speed 5.9 X
Track quality 100.0 %
Test CRC CBB041E2
Copy CRC CBB041E2
Track not present in AccurateRip database
Copy OK
Track 5
Filename S:\DL\Guillaume Roy, Vincent Courtois, Claude Tchamitchian - Amarco (2011) [FLAC]\05 - Petite Conversation Entre Amis.wav
Peak level 98.1 %
Extraction speed 4.0 X
Track quality 99.8 %
Test CRC 5C3CFBE1
Copy CRC 5C3CFBE1
Track not present in AccurateRip database
Copy OK
Track 6
Filename S:\DL\Guillaume Roy, Vincent Courtois, Claude Tchamitchian - Amarco (2011) [FLAC]\06 - Question D'avenir.wav
Pre-gap length 0:00:08.42
Peak level 98.1 %
Extraction speed 6.3 X
Track quality 99.9 %
Test CRC A5DB4F87
Copy CRC A5DB4F87
Track not present in AccurateRip database
Copy OK
Track 7
Filename S:\DL\Guillaume Roy, Vincent Courtois, Claude Tchamitchian - Amarco (2011) [FLAC]\07 - Tactilographie.wav
Pre-gap length 0:00:09.61
Peak level 98.1 %
Extraction speed 6.3 X
Track quality 100.0 %
Test CRC F26160CC
Copy CRC F26160CC
Track not present in AccurateRip database
Copy OK
Track 8
Filename S:\DL\Guillaume Roy, Vincent Courtois, Claude Tchamitchian - Amarco (2011) [FLAC]\08 - Wild Town.wav
Pre-gap length 0:00:05.07
Peak level 98.0 %
Extraction speed 7.4 X
Track quality 100.0 %
Test CRC F5EA7B80
Copy CRC F5EA7B80
Track not present in AccurateRip database
Copy OK
Track 9
Filename S:\DL\Guillaume Roy, Vincent Courtois, Claude Tchamitchian - Amarco (2011) [FLAC]\09 - Time To Change.wav
Pre-gap length 0:00:08.06
Peak level 98.0 %
Extraction speed 6.6 X
Track quality 100.0 %
Test CRC CDD17E11
Copy CRC CDD17E11
Track not present in AccurateRip database
Copy OK
Track 10
Filename S:\DL\Guillaume Roy, Vincent Courtois, Claude Tchamitchian - Amarco (2011) [FLAC]\10 - Lune Objective.wav
Pre-gap length 0:00:08.48
Peak level 98.1 %
Extraction speed 6.8 X
Track quality 100.0 %
Test CRC DFEC8876
Copy CRC DFEC8876
Track not present in AccurateRip database
Copy OK
Track 11
Filename S:\DL\Guillaume Roy, Vincent Courtois, Claude Tchamitchian - Amarco (2011) [FLAC]\11 - Le Souffle De l'Ivresse.wav
Pre-gap length 0:00:06.12
Peak level 100.0 %
Extraction speed 6.6 X
Track quality 99.9 %
Test CRC 21EF3A29
Copy CRC 21EF3A29
Track not present in AccurateRip database
Copy OK
None of the tracks are present in the AccurateRip database
No errors occurred
End of status report
==== Log checksum 69522D5F3A9C5BB411074B58244EF5383C80328C142B5DCBA2B8F55559E0D4FC ====
 
Содержание индексной карты (.CUE)
REM GENRE Jazz
REM DATE 2011
REM DISCID 850A870B
REM COMMENT "ExactAudioCopy v1.0b1"
PERFORMER "Guillaume Roy, Vincent Courtois, Claude Tchamitchian"
TITLE "Amarco"
FILE "01 - Les Palais Oublies.wav" WAVE
TRACK 01 AUDIO
TITLE "Les Palais Oublies"
PERFORMER "Guillaume Roy, Vincent Courtois, Claude Tchamitchian"
INDEX 01 00:00:00
TRACK 02 AUDIO
TITLE "Amarco"
PERFORMER "Guillaume Roy, Vincent Courtois, Claude Tchamitchian"
INDEX 00 04:43:49
FILE "02 - Amarco.wav" WAVE
INDEX 01 00:00:00
TRACK 03 AUDIO
TITLE "Champ Contre Champ"
PERFORMER "Guillaume Roy, Vincent Courtois, Claude Tchamitchian"
INDEX 00 04:15:30
FILE "03 - Champ Contre Champ.wav" WAVE
INDEX 01 00:00:00
TRACK 04 AUDIO
TITLE "Play Ground"
PERFORMER "Guillaume Roy, Vincent Courtois, Claude Tchamitchian"
INDEX 00 04:19:63
FILE "04 - Play Ground.wav" WAVE
INDEX 01 00:00:00
FILE "05 - Petite Conversation Entre Amis.wav" WAVE
TRACK 05 AUDIO
TITLE "Petite Conversation Entre Amis"
PERFORMER "Guillaume Roy, Vincent Courtois, Claude Tchamitchian"
INDEX 01 00:00:00
TRACK 06 AUDIO
TITLE "Question D'avenir"
PERFORMER "Guillaume Roy, Vincent Courtois, Claude Tchamitchian"
INDEX 00 01:36:03
FILE "06 - Question D'avenir.wav" WAVE
INDEX 01 00:00:00
TRACK 07 AUDIO
TITLE "Tactilographie"
PERFORMER "Guillaume Roy, Vincent Courtois, Claude Tchamitchian"
INDEX 00 07:19:09
FILE "07 - Tactilographie.wav" WAVE
INDEX 01 00:00:00
TRACK 08 AUDIO
TITLE "Wild Town"
PERFORMER "Guillaume Roy, Vincent Courtois, Claude Tchamitchian"
INDEX 00 02:46:10
FILE "08 - Wild Town.wav" WAVE
INDEX 01 00:00:00
TRACK 09 AUDIO
TITLE "Time To Change"
PERFORMER "Guillaume Roy, Vincent Courtois, Claude Tchamitchian"
INDEX 00 05:38:61
FILE "09 - Time To Change.wav" WAVE
INDEX 01 00:00:00
TRACK 10 AUDIO
TITLE "Lune Objective"
PERFORMER "Guillaume Roy, Vincent Courtois, Claude Tchamitchian"
INDEX 00 02:20:43
FILE "10 - Lune Objective.wav" WAVE
INDEX 01 00:00:00
TRACK 11 AUDIO
TITLE "Le Souffle De l'Ivresse"
PERFORMER "Guillaume Roy, Vincent Courtois, Claude Tchamitchian"
INDEX 00 02:21:13
FILE "11 - Le Souffle De l'Ivresse.wav" WAVE
INDEX 01 00:00:00
 
Состав
Guillaume Roy : viola
Vincent Courtois : cello
Claude Tchamitchian : double bass
Any questions -> support@pro-jazz.com. По всем вопросам пишите -> support@pro-jazz.com
21:08
183
Нет комментариев. Ваш будет первым!