Вы используете незарегистрированную версию компонента "Вкладки"!

Поиск

(Avant-Garde Jazz, Modern Free, Experimental) Marco Benevento - Me Not Me - 2009, FLAC (tracks+.cue) lossless

Треклист:
Marco Benevento / Me Not Me Жанр: Avant-Garde Jazz, Modern Free, Experimental
Страна-производитель диска: US
Год издания диска: 2009
Издатель (лейбл): Royal Potato Family
Номер по каталогу: RPF 1305
Страна: US
Аудио кодек: FLAC (*.flac)
Тип рипа: tracks+.cue
Битрейт аудио: lossless
Продолжительность: 00:43:01.120 (113 827 392 samples)
Источник (релизер): nnm.ru (user787878)
Наличие сканов в содержимом раздачи: нет
Треклист:
1. Golden
Written-By – Jim James
2. Now They're Writing Music
Written-By – Marco Benevento
3. Seems So Long Ago Nancy
Written-By – Leonard Cohen
4. Mephisto
Written-By – Marco Benevento
5. Twin Killers
Written-By – Greg Saunier, Satomi Matsuzaki
6. Call Home
Written-By – Marco Benevento
7. Heartbeats
Written-By – Karin Dreijer, Olaf Dreijer
8. Sing It Again
Written-By – Beck Hansen
9. Friends
Written-By – Jimmy Page, Robert Plant
10. Run Of The Mills
Written-By – George Harrison
 
Лог создания рипа
Exact Audio Copy V1.0 beta 1 from 15. November 2010
EAC extraction logfile from 11. January 2011, 15:01
Marco Benevento / Me Not Me
Used drive : PIONEER DVD-RW DVR-215D Adapter: 3 ID: 0
Read mode : Secure
Utilize accurate stream : Yes
Defeat audio cache : Yes
Make use of C2 pointers : No
Read offset correction : 48
Overread into Lead-In and Lead-Out : No
Fill up missing offset samples with silence : Yes
Delete leading and trailing silent blocks : No
Null samples used in CRC calculations : Yes
Used interface : Native Win32 interface for Win NT & 2000
Gap handling : Appended to previous track
Used output format : User Defined Encoder
Selected bitrate : 1024 kBit/s
Quality : High
Add ID3 tag : No
Command line compressor : C:\Program Files (x86)\FLAC\flac.exe
Additional command line options : -V -8 -T "artist=%a" -T "title=%t" -T "album=%g" -T "date=%y" -T "tracknumber=%n" -T "genre=%m" %s
TOC of the extracted CD
Track | Start | Length | Start sector | End sector
---------------------------------------------------------
1 | 0:00.00 | 5:32.02 | 0 | 24901
2 | 5:32.02 | 4:47.63 | 24902 | 46489
3 | 10:19.65 | 4:40.03 | 46490 | 67492
4 | 14:59.68 | 4:58.26 | 67493 | 89868
5 | 19:58.19 | 3:59.73 | 89869 | 107866
6 | 23:58.17 | 3:37.33 | 107867 | 124174
7 | 27:35.50 | 3:27.42 | 124175 | 139741
8 | 31:03.17 | 4:25.25 | 139742 | 159641
9 | 35:28.42 | 4:15.15 | 159642 | 178781
10 | 39:43.57 | 3:17.27 | 178782 | 193583
Track 1
Filename E:\EAC Rips\2009 - Me Not Me\01 - Golden.wav
Pre-gap length 0:00:02.00
Peak level 100.0 %
Extraction speed 4.9 X
Track quality 100.0 %
Test CRC 7C403C03
Copy CRC 7C403C03
Accurately ripped (confidence 5) [5122F5F6]
Copy OK
Track 2
Filename E:\EAC Rips\2009 - Me Not Me\02 - Now They're Writing Music.wav
Pre-gap length 0:00:00.52
Peak level 98.8 %
Extraction speed 5.4 X
Track quality 100.0 %
Test CRC DF6B4E3C
Copy CRC DF6B4E3C
Accurately ripped (confidence 5) [32B50042]
Copy OK
Track 3
Filename E:\EAC Rips\2009 - Me Not Me\03 - Seems So Long Ago Nancy.wav
Pre-gap length 0:00:01.53
Peak level 98.8 %
Extraction speed 5.9 X
Track quality 100.0 %
Test CRC F335970C
Copy CRC F335970C
Cannot be verified as accurate (confidence 5) [D08C631D], AccurateRip returned [DA3A17A5]
Copy OK
Track 4
Filename E:\EAC Rips\2009 - Me Not Me\04 - Mephisto.wav
Pre-gap length 0:00:01.67
Peak level 98.8 %
Extraction speed 6.4 X
Track quality 100.0 %
Copy CRC 69AFE682
Accurately ripped (confidence 5) [DA727271]
Copy OK
Track 5
Filename E:\EAC Rips\2009 - Me Not Me\05 - Twin Killers.wav
Pre-gap length 0:00:01.59
Peak level 98.8 %
Extraction speed 6.5 X
Track quality 100.0 %
Test CRC 2080F75A
Copy CRC 2080F75A
Accurately ripped (confidence 5) [B62E7DB3]
Copy OK
Track 6
Filename E:\EAC Rips\2009 - Me Not Me\06 - Call Home.wav
Pre-gap length 0:00:02.35
Peak level 98.8 %
Extraction speed 6.6 X
Track quality 100.0 %
Test CRC 2F3E6C62
Copy CRC 2F3E6C62
Accurately ripped (confidence 5) [F866347C]
Copy OK
Track 7
Filename E:\EAC Rips\2009 - Me Not Me\07 - Heartbeats.wav
Pre-gap length 0:00:02.18
Peak level 98.8 %
Extraction speed 6.0 X
Track quality 99.9 %
Test CRC ADB17D7C
Copy CRC ADB17D7C
Accurately ripped (confidence 5) [4D2E96A2]
Copy OK
Track 8
Filename E:\EAC Rips\2009 - Me Not Me\08 - Sing It Again.wav
Pre-gap length 0:00:03.69
Peak level 98.8 %
Extraction speed 6.7 X
Track quality 99.9 %
Test CRC B1A7DD20
Copy CRC B1A7DD20
Accurately ripped (confidence 5) [170EA4CE]
Copy OK
Track 9
Filename E:\EAC Rips\2009 - Me Not Me\09 - Friends.wav
Pre-gap length 0:00:01.70
Peak level 98.8 %
Extraction speed 7.7 X
Track quality 100.0 %
Test CRC 40CB8A93
Copy CRC 40CB8A93
Accurately ripped (confidence 5) [58FB48A6]
Copy OK
Track 10
Filename E:\EAC Rips\2009 - Me Not Me\10 - Run of the Mill.wav
Pre-gap length 0:00:02.14
Peak level 98.8 %
Extraction speed 7.6 X
Track quality 100.0 %
Test CRC BA655EA4
Copy CRC BA655EA4
Accurately ripped (confidence 5) [52797874]
Copy OK
9 track(s) accurately ripped
1 track(s) could not be verified as accurate
Some tracks could not be verified as accurate
No errors occurred
End of status report
==== Log checksum 0FA91A416ADF43E7610D32123D0C4E450DF00AEB2EC17D91CB88AA81EBAF02AE ====
------------------------------------------------------------
Exact Audio Copy V1.0 beta 1 from 15. November 2010
EAC extraction logfile from 11. January 2011, 15:05
Marco Benevento / Me Not Me
Used drive : PIONEER DVD-RW DVR-215D Adapter: 3 ID: 0
Read mode : Secure
Utilize accurate stream : Yes
Defeat audio cache : Yes
Make use of C2 pointers : No
Read offset correction : 48
Overread into Lead-In and Lead-Out : No
Fill up missing offset samples with silence : Yes
Delete leading and trailing silent blocks : No
Null samples used in CRC calculations : Yes
Used interface : Native Win32 interface for Win NT & 2000
Gap handling : Appended to previous track
Used output format : User Defined Encoder
Selected bitrate : 1024 kBit/s
Quality : High
Add ID3 tag : No
Command line compressor : C:\Program Files (x86)\FLAC\flac.exe
Additional command line options : -V -8 -T "artist=%a" -T "title=%t" -T "album=%g" -T "date=%y" -T "tracknumber=%n" -T "genre=%m" %s
TOC of the extracted CD
Track | Start | Length | Start sector | End sector
---------------------------------------------------------
1 | 0:00.00 | 5:32.02 | 0 | 24901
2 | 5:32.02 | 4:47.63 | 24902 | 46489
3 | 10:19.65 | 4:40.03 | 46490 | 67492
4 | 14:59.68 | 4:58.26 | 67493 | 89868
5 | 19:58.19 | 3:59.73 | 89869 | 107866
6 | 23:58.17 | 3:37.33 | 107867 | 124174
7 | 27:35.50 | 3:27.42 | 124175 | 139741
8 | 31:03.17 | 4:25.25 | 139742 | 159641
9 | 35:28.42 | 4:15.15 | 159642 | 178781
10 | 39:43.57 | 3:17.27 | 178782 | 193583
Track 3
Filename E:\EAC Rips\2009 - Me Not Me\03 - Seems So Long Ago Nancy.wav
Pre-gap length 0:00:01.53
Peak level 98.8 %
Extraction speed 5.9 X
Track quality 100.0 %
Test CRC D79CDD9A
Copy CRC D79CDD9A
Accurately ripped (confidence 5) [DA3A17A5]
Copy OK
Track 4
Filename E:\EAC Rips\2009 - Me Not Me\04 - Mephisto.wav
Pre-gap length 0:00:01.67
Peak level 98.8 %
Extraction speed 6.3 X
Track quality 100.0 %
Test CRC 69AFE682
Copy CRC 69AFE682
Accurately ripped (confidence 5) [DA727271]
Copy OK
All tracks accurately ripped
No errors occurred
End of status report
==== Log checksum 34BD1792674BAF3939F75984012D810D30B468A635E4F01DCDCC0B006068C3B4 ====
 
Содержание индексной карты (.CUE)
REM GENRE Jazz
REM DATE 2009
REM DISCID 6A0A150A
REM COMMENT "ExactAudioCopy v1.0b1"
PERFORMER "Marco Benevento"
TITLE "Me Not Me"
FILE "01 - Golden.wav" WAVE
TRACK 01 AUDIO
TITLE "Golden"
PERFORMER "Marco Benevento"
ISRC USME30802060
INDEX 01 00:00:00
TRACK 02 AUDIO
TITLE "Now They're Writing Music"
PERFORMER "Marco Benevento"
ISRC USME30802061
INDEX 00 05:31:25
FILE "02 - Now They're Writing Music.wav" WAVE
INDEX 01 00:00:00
TRACK 03 AUDIO
TITLE "Seems So Long Ago Nancy"
PERFORMER "Marco Benevento"
ISRC USME30802062
INDEX 00 04:46:10
FILE "03 - Seems So Long Ago Nancy.wav" WAVE
INDEX 01 00:00:00
TRACK 04 AUDIO
TITLE "Mephisto"
PERFORMER "Marco Benevento"
ISRC USME30802063
INDEX 00 04:38:11
FILE "04 - Mephisto.wav" WAVE
INDEX 01 00:00:00
TRACK 05 AUDIO
TITLE "Twin Killers"
PERFORMER "Marco Benevento"
ISRC USME30802064
INDEX 00 04:56:42
FILE "05 - Twin Killers.wav" WAVE
INDEX 01 00:00:00
TRACK 06 AUDIO
TITLE "Call Home"
PERFORMER "Marco Benevento"
ISRC USME30802065
INDEX 00 03:57:38
FILE "06 - Call Home.wav" WAVE
INDEX 01 00:00:00
TRACK 07 AUDIO
TITLE "Heartbeats"
PERFORMER "Marco Benevento"
ISRC USME30802066
INDEX 00 03:35:15
FILE "07 - Heartbeats.wav" WAVE
INDEX 01 00:00:00
TRACK 08 AUDIO
TITLE "Sing It Again"
PERFORMER "Marco Benevento"
ISRC USME30802067
INDEX 00 03:23:48
FILE "08 - Sing It Again.wav" WAVE
INDEX 01 00:00:00
TRACK 09 AUDIO
TITLE "Friends"
PERFORMER "Marco Benevento"
ISRC USME30802068
INDEX 00 04:23:30
FILE "09 - Friends.wav" WAVE
INDEX 01 00:00:00
TRACK 10 AUDIO
TITLE "Run of the Mill"
PERFORMER "Marco Benevento"
ISRC USME30802069
INDEX 00 04:13:01
FILE "10 - Run of the Mill.wav" WAVE
INDEX 01 00:00:00
 
Лог проверки качества
-----------------------
DON'T MODIFY THIS FILE
-----------------------
PERFORMER: auCDtect Task Manager, ver. 1.5.1RC4 build 1.5.1.5
Copyright (c) 2008-2010 y-soft. All rights reserved
http://y-soft.org
ANALYZER: auCDtect: CD records authenticity detector, version 0.8.2
Copyright (c) 2004 Oleg Berngardt. All rights reserved.
Copyright (c) 2004 Alexander Djourik. All rights reserved.
FILE: 10 - Run of the Mill.flac
Size: 20566038 Hash: D61DD3B4ACF7309AC5753397ABAF56A9 Accuracy: -m0
Conclusion: CDDA 100%
Signature: C80CEAAC910416936376F6D6BA23AA93AC3B7362
FILE: 09 - Friends.flac
Size: 30150413 Hash: 70BB22DE808771BF6894B101EF00E460 Accuracy: -m0
Conclusion: CDDA 100%
Signature: 550B80ADC482B9E35F4C3757C548D936670D09C9
FILE: 08 - Sing It Again.flac
Size: 22511936 Hash: FF3CDDF751A420C7F2C74C7542BBDA50 Accuracy: -m0
Conclusion: CDDA 100%
Signature: C7295F47F936D977110663BF886D650205109E78
FILE: 07 - Heartbeats.flac
Size: 22310836 Hash: 1C2EEBBE2FFE6209C8A4934545EFCC4A Accuracy: -m0
Conclusion: CDDA 100%
Signature: 534DDD752C037EBF7BBFF046F20342623FC501E9
FILE: 06 - Call Home.flac
Size: 24461438 Hash: 62757221517516531F3594CB8FD6B73D Accuracy: -m0
Conclusion: CDDA 100%
Signature: DB512E12604BCE91515CE06ACE714BB8F0580152
FILE: 05 - Twin Killers.flac
Size: 28558801 Hash: 14D2BBD86E5817505517D7A59F08FB00 Accuracy: -m0
Conclusion: CDDA 100%
Signature: 8418870C1AE869F6CEA980DB7852AFE4BF6DFF14
FILE: 04 - Mephisto.flac
Size: 33574714 Hash: 8FC6006E89194C308377FEBE1EFACC5A Accuracy: -m0
Conclusion: CDDA 99%
Signature: B9717969C3CC94A642820E11CAFCCB03073D24BA
FILE: 03 - Seems So Long Ago Nancy.flac
Size: 30929671 Hash: E96B0514CB5978CA5F71F2FD5623C0C5 Accuracy: -m0
Conclusion: CDDA 100%
Signature: D0C3AFFC2A98A16D83872B6D07CA691161877B92
FILE: 02 - Now They're Writing Music.flac
Size: 31896328 Hash: 1657DF244301E75D7894D839FBB392CC Accuracy: -m0
Conclusion: CDDA 100%
Signature: 82D24703F9A2DC62193F3D11AFB4101D4995E932
FILE: 01 - Golden.flac
Size: 37738605 Hash: 050607765BA4AAF82EE8B6A712128717 Accuracy: -m0
Conclusion: CDDA 100%
Signature: 86B3DB4C3F4182666C55F7F401D75BC4ED4580F4
 
Скриншот спектра частот
 
Доп. информация:
Credits:
Artwork By [Design], Photography – Michael Didonna
Drums – Andrew Barr (tracks: 2, 3, 5, 6, 7), Matt Chamberlain (tracks: 1, 2, 4, 9, 10)
Electric Bass – Reed Mathis
Engineer – Tucker Martine
Keyboards [Optigan], Piano, Mellotron, Piano [Tack Piano], Clavinet – Marco Benevento
Mastered By – Fred Kevorkian
Mixed By – Bryce Goggin
Any questions -> support@pro-jazz.com. По всем вопросам пишите -> support@pro-jazz.com
11:39
165
Нет комментариев. Ваш будет первым!