Вы используете незарегистрированную версию компонента "Вкладки"!

Поиск

(Avant-Garde Jazz, Modern Creative) The Remote Viewers - Persuasive With Aliens - 2000, FLAC (tracks+.cue), lossless

(Avant-Garde Jazz, Modern Creative) The Remote Viewers - Persuasive With Aliens - 2000, FLAC (tracks+.cue), lossless
Треклист:
The Remote Viewers - Persuasive With Aliens
Жанр: Avant-Garde Jazz,Modern Creative
Год выпуска диска: 2000
Производитель диска: U.K.
Аудио кодек: FLAC
Тип рипа: tracks+.cue
Битрейт аудио: lossless
Продолжительность: 58:11
Трэклист:
1. Jump They Say - 3:57
2. Cold War -5:00
3. The Secret of Chimneys - 3:19
4. The Distraction of Elegance - 8:34
5. Conspiring With Robots - 5:16
6. All Mine -5:03
7. Verticals and Night Sounds - 6:04
8. Alien Landscape - 3:51
9. The Tilt of Cylinders - 6:39
10. Persuasive With Aliens -10:23
Доп. информация:
Label:Leo Records
Catalog#:LEO LAB CD 067
Rip с фирменного CD из собственной коллекции
Credits:
Adrian Northover - soprano saxophone
Louise Petts - alto saxophone,vocals,electronics
David Petts - tenor saxophone,electronics
 
Log file:
Отчёт EAC об извлечении, выполненном 23. августа 2009, 19:35 для диска:
The Remote Viewers / Persuasive With Aliens
Дисковод: MATSHITABD-MLT UJ-210S Adapter: 0 ID: 0
Режим чтения: Достоверный (C2: нет, Точный поток: да, Отключение кэша: да)
Коррекция смещения при чтении: 102
Способность читать области Lead-in и Lead-out : Нет
Выходной формат: Внутренние WAV-операции
44.100 Гц; 16 бит; стерео
Другие параметры:
Заполнение пропущенных сэмплов тишиной : Да
Удаление блоков с тишиной в начале и конце : Нет
Встроенный Win32-интерфейс для Win NT/2000
Трек 1
Имя файла J:\temp\The Remote Viewers - Persuasive With Aliens\01. Jump They Say.wav
Длина предзазора 0:00:02.00
Пиковый уровень 70.1 %
Качество трека 100.0 %
CRC теста 92B0B93F
CRC копии 92B0B93F
Копирование... OK
Трек 2
Имя файла J:\temp\The Remote Viewers - Persuasive With Aliens\02. Cold War.wav
Пиковый уровень 81.3 %
Качество трека 100.0 %
CRC теста 4D242DF2
CRC копии 4D242DF2
Копирование... OK
Трек 3
Имя файла J:\temp\The Remote Viewers - Persuasive With Aliens\03. The Secret of Chimneys.wav
Пиковый уровень 92.2 %
Качество трека 100.0 %
CRC теста 416C56B6
CRC копии 416C56B6
Копирование... OK
Трек 4
Имя файла J:\temp\The Remote Viewers - Persuasive With Aliens\04. The Distraction of Elegance.wav
Пиковый уровень 92.2 %
Качество трека 100.0 %
CRC теста BA9E3DE4
CRC копии BA9E3DE4
Копирование... OK
Трек 5
Имя файла J:\temp\The Remote Viewers - Persuasive With Aliens\05. Conspiring With Robots.wav
Пиковый уровень 59.6 %
Качество трека 100.0 %
CRC теста 2346B764
CRC копии 2346B764
Копирование... OK
Трек 6
Имя файла J:\temp\The Remote Viewers - Persuasive With Aliens\06. All Mine.wav
Пиковый уровень 70.8 %
Качество трека 100.0 %
CRC теста 4113A33E
CRC копии 4113A33E
Копирование... OK
Трек 7
Имя файла J:\temp\The Remote Viewers - Persuasive With Aliens\07. Verticals And Night Sounds.wav
Пиковый уровень 45.4 %
Качество трека 100.0 %
CRC теста 9352B70A
CRC копии 9352B70A
Копирование... OK
Трек 8
Имя файла J:\temp\The Remote Viewers - Persuasive With Aliens\08. Alien Landscape.wav
Пиковый уровень 85.9 %
Качество трека 100.0 %
CRC теста 06473B3A
CRC копии 06473B3A
Копирование... OK
Трек 9
Имя файла J:\temp\The Remote Viewers - Persuasive With Aliens\09. The Tilt of Cylinders.wav
Пиковый уровень 54.5 %
Качество трека 100.0 %
CRC теста 58E2DB8E
CRC копии 58E2DB8E
Копирование... OK
Трек 10
Имя файла J:\temp\The Remote Viewers - Persuasive With Aliens\10. Persuasive With Aliens.wav
Пиковый уровень 61.9 %
Качество трека 99.9 %
CRC теста 6E2AAFC1
CRC копии 6E2AAFC1
Копирование... OK
Ошибок не произошло
Конец отчёта
 
Содержание индексной карты (.CUE):
REM GENRE "Avant-Garde Jazz"
REM DATE 2000
REM DISCID A10DA10A
REM COMMENT "ExactAudioCopy v0.95b4"
CATALOG 0000000000000
PERFORMER "The Remote Viewers"
TITLE "Persuasive With Aliens"
FILE "01. Jump They Say.wav" WAVE
TRACK 01 AUDIO
TITLE "Jump They Say"
PERFORMER "The Remote Viewers"
FLAGS DCP
INDEX 01 00:00:00
FILE "02. Cold War.wav" WAVE
TRACK 02 AUDIO
TITLE "Cold War"
PERFORMER "The Remote Viewers"
FLAGS DCP
INDEX 01 00:00:00
FILE "03. The Secret of Chimneys.wav" WAVE
TRACK 03 AUDIO
TITLE "The Secret of Chimneys"
PERFORMER "The Remote Viewers"
FLAGS DCP
INDEX 01 00:00:00
FILE "04. The Distraction of Elegance.wav" WAVE
TRACK 04 AUDIO
TITLE "The Distraction of Elegance"
PERFORMER "The Remote Viewers"
FLAGS DCP
INDEX 01 00:00:00
FILE "05. Conspiring With Robots.wav" WAVE
TRACK 05 AUDIO
TITLE "Conspiring With Robots"
PERFORMER "The Remote Viewers"
FLAGS DCP
INDEX 01 00:00:00
FILE "06. All Mine.wav" WAVE
TRACK 06 AUDIO
TITLE "All Mine"
PERFORMER "The Remote Viewers"
FLAGS DCP
INDEX 01 00:00:00
FILE "07. Verticals And Night Sounds.wav" WAVE
TRACK 07 AUDIO
TITLE "Verticals And Night Sounds"
PERFORMER "The Remote Viewers"
FLAGS DCP
INDEX 01 00:00:00
FILE "08. Alien Landscape.wav" WAVE
TRACK 08 AUDIO
TITLE "Alien Landscape"
PERFORMER "The Remote Viewers"
FLAGS DCP
INDEX 01 00:00:00
FILE "09. The Tilt of Cylinders.wav" WAVE
TRACK 09 AUDIO
TITLE "The Tilt of Cylinders"
PERFORMER "The Remote Viewers"
FLAGS DCP
INDEX 01 00:00:00
FILE "10. Persuasive With Aliens.wav" WAVE
TRACK 10 AUDIO
TITLE "Persuasive With Aliens"
PERFORMER "The Remote Viewers"
FLAGS DCP
INDEX 01 00:00:00
 
скрытый текст
Any questions -> support@pro-jazz.com. По всем вопросам пишите -> support@pro-jazz.com
14:20
142
Нет комментариев. Ваш будет первым!