Вы используете незарегистрированную версию компонента "Вкладки"!

Поиск

(Avant-Garde Jazz, Modern Creative) Simon Nabatov, Han Bennink - Chat Room - 2003, FLAC (tracks+.cue), lossless

(Avant-Garde Jazz, Modern Creative) Simon Nabatov, Han Bennink - Chat Room - 2003, FLAC (tracks+.cue), lossless
Треклист:
Simon Nabatov, Han Bennink - Chat Room
Жанр: Avant-Garde Jazz, Modern Creative
Год выпуска диска: 2003
Производитель диска: UK, Leo Records
Аудио кодек: FLAC
Тип рипа: tracks+.cue
Битрейт аудио: lossless
Продолжительность: 61:13
Трэклист:
1. chat room - 6.25
2. foaming - 6.46
3. don't bother (for Misha) - 4.58
4. prediction - 3.49
5. es läuft! - 5.45
6. unperturbed (for Paul) - 6.37
7. slightly off - 4.00
8. sorrow - 7.00
9. sync - 2.24
10. the lost one - 7.14
11. together - 5.20
Musicians:
Simon Nabatov - piano
Han Bennink - drums
All compositions by Simon Nabatov and Han Bennink
Recorded at LOFT, Cologne, September 5th, 2001
(c)(p) Leo Records, 2003
 
Отчёт EAC
Exact Audio Copy V0.99 prebeta 4 from 23. January 2008
EAC extraction logfile from 2. November 2008, 16:41
Simon Nabatov, Han Bennink / Chat Room
Used drive : PLEXTOR DVDR PX-760A Adapter: 0 ID: 0
Read mode : Secure
Utilize accurate stream : Yes
Defeat audio cache : Yes
Make use of C2 pointers : No
Read offset correction : 30
Overread into Lead-In and Lead-Out : Yes
Fill up missing offset samples with silence : Yes
Delete leading and trailing silent blocks : No
Null samples used in CRC calculations : Yes
Used interface : Native Win32 interface for Win NT & 2000
Gap handling : Appended to previous track
Used output format : User Defined Encoder
Selected bitrate : 128 kBit/s
Quality : High
Add ID3 tag : No
Command line compressor : C:\Program Files\FLAC\flac.exe
Additional command line options : -8 -V -T "ARTIST=%a" -T "TITLE=%t" -T "ALBUM=%g" -T "DATE=%y" -T "TRACKNUMBER=%n" -T "GENRE=%m" -T "COMMENT=EAC FLAC -8" %s
TOC of the extracted CD
Track | Start | Length | Start sector | End sector
---------------------------------------------------------
1 | 0:00.00 | 6:29.74 | 0 | 29248
2 | 6:29.74 | 6:51.53 | 29249 | 60126
3 | 13:21.52 | 5:01.09 | 60127 | 82710
4 | 18:22.61 | 3:55.07 | 82711 | 100342
5 | 22:17.68 | 5:50.26 | 100343 | 126618
6 | 28:08.19 | 6:43.19 | 126619 | 156862
7 | 34:51.38 | 4:04.54 | 156863 | 175216
8 | 38:56.17 | 7:06.21 | 175217 | 207187
9 | 46:02.38 | 2:29.53 | 207188 | 218415
10 | 48:32.16 | 7:20.42 | 218416 | 251457
11 | 55:52.58 | 5:20.32 | 251458 | 275489
Track 1
Filename H:\Simon Nabatov, Han Bennink - Chat Room (2003) [FLAC]\01 - chat room.wav
Pre-gap length 0:00:02.00
Peak level 96.6 %
Track quality 100.0 %
Test CRC D2A8FDD8
Copy CRC D2A8FDD8
Track not present in AccurateRip database
Copy OK
Track 2
Filename H:\Simon Nabatov, Han Bennink - Chat Room (2003) [FLAC]\02 - foaming.wav
Pre-gap length 0:00:05.28
Peak level 96.6 %
Track quality 100.0 %
Test CRC 9D4A80F8
Copy CRC 9D4A80F8
Track not present in AccurateRip database
Copy OK
Track 3
Filename H:\Simon Nabatov, Han Bennink - Chat Room (2003) [FLAC]\03 - don't bother (for Misha).wav
Pre-gap length 0:00:05.73
Peak level 96.6 %
Track quality 100.0 %
Test CRC 25995D69
Copy CRC 25995D69
Track not present in AccurateRip database
Copy OK
Track 4
Filename H:\Simon Nabatov, Han Bennink - Chat Room (2003) [FLAC]\04 - prediction.wav
Pre-gap length 0:00:02.62
Peak level 96.6 %
Track quality 99.9 %
Test CRC 3D5F937D
Copy CRC 3D5F937D
Track not present in AccurateRip database
Copy OK
Track 5
Filename H:\Simon Nabatov, Han Bennink - Chat Room (2003) [FLAC]\05 - es lauft!.wav
Pre-gap length 0:00:05.54
Peak level 96.6 %
Track quality 100.0 %
Test CRC DFDF3CD9
Copy CRC DFDF3CD9
Track not present in AccurateRip database
Copy OK
Track 6
Filename H:\Simon Nabatov, Han Bennink - Chat Room (2003) [FLAC]\06 - unperturbed (for Paul).wav
Pre-gap length 0:00:05.04
Peak level 96.6 %
Track quality 100.0 %
Test CRC C267744C
Copy CRC C267744C
Track not present in AccurateRip database
Copy OK
Track 7
Filename H:\Simon Nabatov, Han Bennink - Chat Room (2003) [FLAC]\07 - slightly off.wav
Pre-gap length 0:00:06.16
Peak level 96.6 %
Track quality 99.9 %
Test CRC EFF16A04
Copy CRC EFF16A04
Track not present in AccurateRip database
Copy OK
Track 8
Filename H:\Simon Nabatov, Han Bennink - Chat Room (2003) [FLAC]\08 - sorrow.wav
Pre-gap length 0:00:04.43
Peak level 96.6 %
Track quality 100.0 %
Test CRC BD8BF2F8
Copy CRC BD8BF2F8
Track not present in AccurateRip database
Copy OK
Track 9
Filename H:\Simon Nabatov, Han Bennink - Chat Room (2003) [FLAC]\09 - sync.wav
Pre-gap length 0:00:05.10
Peak level 96.6 %
Track quality 100.0 %
Test CRC 8D7A65D1
Copy CRC 8D7A65D1
Track not present in AccurateRip database
Copy OK
Track 10
Filename H:\Simon Nabatov, Han Bennink - Chat Room (2003) [FLAC]\10 - the lost one.wav
Pre-gap length 0:00:06.05
Peak level 96.6 %
Track quality 100.0 %
Test CRC 314CD19F
Copy CRC 314CD19F
Track not present in AccurateRip database
Copy OK
Track 11
Filename H:\Simon Nabatov, Han Bennink - Chat Room (2003) [FLAC]\11 - together.wav
Pre-gap length 0:00:06.47
Peak level 96.6 %
Track quality 99.9 %
Test CRC 547B50CA
Copy CRC 547B50CA
Track not present in AccurateRip database
Copy OK
None of the tracks are present in the AccurateRip database
No errors occurred
End of status report
Рип оригинального диска. Сканы прилагаются.
За релиз спасибо almouse
 
Мои раздачи на трекере
Вокальное и Хоровое искусства (lossless)
Jah Wobble - Requiem
Mozart - Requiem/Реквием (Dr. Stefan Klimo, Zdenek Kosler), Exultate, jubilate (Klaus Donath); Beethoven - Mass C-dur (Anton Nanut)
Оркестровая (lossless)
Joseph Haydn - Wiedenski klasyk - Trumpet Concerto (Alberto Lizzio) / Symphony No. 94 (Alfred Scholz)/ The Quartet No. 62 (Caspar da Salo)
Зарубежный Джаз (lossless)
The Fonda/Stevens Group - Forever Real
Dominic Duval Quintet - Cries and Whispers
George Lewis - Homage to Charles Parker
Marco Benevento - Invisible Baby
Matt Darriau Paradox Trio with Theodosii Spassov - Gambit
Enders Room - Random Guru (Johannes Enders)
Mike Stern - Between the Lines
Jon Eberson - Stash
Sun Ra and His Astro-Infinity Arkestra - Sound Sun Pleasure!!
Kenny Wheeler - Gnu High
Orquesta De Las Nubes - Me Paro Cuando Suena
Orquesta De Las Nubes - El Orden Del Azar
Jazzonia - Little Boy Don't Get Scared
VA - Warsaw Summer Jazz Days 2001 - Nastroj i zgraj zmysly
bILL fRISELL music for the films of bUSTER kEATON Go West
Fred Frith - Speechless
Jonas Hellborg - Adfa (featuring Trilok Gurtu)
Keith Jarrett - Belonging (w. Jan Garbarek)
Jan Garbarek-Bobo Stenson Quartet - Dansere
Jan Garbarek - Places
Shakti with John McLaughlin - Natural Elements (Japan release)
Shakti with John McLaughlin - A Handful of Beauty (Japan release)
Jaco Pastorius - Golden Roads
Mel Lewis and The Jazz Orchestra / Bob Brookmeyer - Live At The Village Vanguard
David Liebman and Richard Beirach - Chant
Louis Sclavis / Dominique Pifarely - Acoustic Quartet
Herbie Hancock - Future 2 Future (Japan bonus track)
Joachim Kühn with Daniel Humair and J. F. Jenny-Clark - Easy to Read
Joachim Kuhn, Mark Nauseef, Tony Newton, Miroslav Tadic - Let's Be Generous
George E. Lewis - Voyager
Christian Muthspiel, Gary Peacock, Wolfgang Muthspiel, Paul Motian
Oregon - Roots in the Sky
Oregon - Winter Light
Nana Vasconcelos, Steve Gorn, Badal Roy, Mike Richmond - Asian Journal
Charles Lloyd / Billy Higgins - Which Way Is East (2 CD)
Jamaaladeen Tacuma - Jukebox
Jamaaladeen Tacuma - Show Stopper
Jamaaladeen Tacuma - Renaissance Man
Edward Vesala Sound & Fury - Nordic Gallery
Original Silence - The Second Original Silence (Mats Gustafsson)
Eartha Kitt - Thinking Jazz
Steven Bernstein - Diaspora Hollywood
Moscow Composers Orchestra - Kings and Cabbages
John Zorn - Filmworks XXIII- el General
Avant-garde, Experimental Metal (lossless)
Praxis - Tennessee 2004
Azonic - Halo (Bill Laswell, Andy Hawkins)
Dub
VA - Axiom Dub: Mysteries of Creation (Bill Laswell)
Indie, Post-Rock & Post-Punk (lossless)
Jah Wobble - The Legend Lives On...Jah Wobbles in ''Betrayal"
Progressive & Art-Rock (lossless)
The Golden Palominos - A Dead Horse
Западноевропейский фолк (lossless)
Lena Willemark & Ale Möller - Nordan
Джаз и Блюз (DVD Video)
Dave Liebman - Sketches of Spain
Michel Portal - Jazz à Vienne
Джаз и Блюз (Видео)
Louis Sclavis Quintet "Lost On the Way" - Europa Jazz Festival
Арт-хаус и авторское кино (DVD, HD Video)
Коротко и со вкусом II - Ты и я / Kurz und gut II - Du und Ich
Коротко и со вкусом II - Близко и далеко / Kurz und gut II - Nach und fern
Коротко и со вкусом II - Стар и млад / Kurz und Gut II - Jung und Alt
Коротко и со вкусом II - Уйти или остаться / Kurz und gut II - Abhaun oder dableiben
Any questions -> support@pro-jazz.com. По всем вопросам пишите -> support@pro-jazz.com
16:40
147
Нет комментариев. Ваш будет первым!