Вы используете незарегистрированную версию компонента "Вкладки"!

Поиск

(Avant-Garde Jazz / Modern Creative) Sachi Hayasaka - Minga - 2003, FLAC (image+.cue) lossless

Треклист:
Sachi Hayasaka / Minga
Жанр: Avant-Garde Jazz / Modern Creative
Страна-производитель диска: USA
Год издания диска: 2003
Издатель (лейбл): Tzadik
Номер по каталогу: TZ 7244
Страна: Japan
Аудио кодек: FLAC (*.flac)
Тип рипа: image+.cue
Битрейт аудио: lossless
Продолжительность: 57:01
Источник: оригинальный диск
Наличие сканов в содержимом раздачи: да
Треклист:
1. Casa Minga (music by Nagata Toshiki) 6:58
2. Break Up! (music by Sachi Hayasaka) 7:17
3. Intense Heat (music by Sachi Hayasaka) 4:01
4. Jelly Fish Suites (music by Sachi Hayasaka) 15:41
5. Ligeuyou Ndeye Dom (lyrics by Wagane N'Diyae Rose) 5:11
6. The Nights With Midnight Sun (bulgarian traditional) 10:37
7. Abyss (music by Nagata Toshiki) 7:13
 
Лог создания рипа
Exact Audio Copy V0.99 prebeta 4 from 23. January 2008
EAC extraction logfile from 6. October 2010, 13:13
Sachi Hayasaka / Minga
Used drive : YAMAHA CRW-F1E Adapter: 4 ID: 0
Read mode : Secure
Utilize accurate stream : Yes
Defeat audio cache : Yes
Make use of C2 pointers : No
Read offset correction : 733
Overread into Lead-In and Lead-Out : No
Fill up missing offset samples with silence : Yes
Delete leading and trailing silent blocks : No
Null samples used in CRC calculations : Yes
Used interface : Native Win32 interface for Win NT & 2000
Used output format : Internal WAV Routines
Sample format : 44.100 Hz; 16 Bit; Stereo
TOC of the extracted CD
Track | Start | Length | Start sector | End sector
---------------------------------------------------------
1 | 0:00.00 | 6:58.68 | 0 | 31417
2 | 6:58.68 | 7:17.12 | 31418 | 64204
3 | 14:16.05 | 4:01.40 | 64205 | 82319
4 | 18:17.45 | 15:41.10 | 82320 | 152904
5 | 33:58.55 | 5:11.13 | 152905 | 176242
6 | 39:09.68 | 10:37.17 | 176243 | 224034
7 | 49:47.10 | 7:13.73 | 224035 | 256582
Range status and errors
Selected range
Filename D:\!mTorrent razdachi\Sachi Hayasaka_Minga\Sachi Hayasaka - Minga.wav
Peak level 100.0 %
Range quality 100.0 %
Test CRC 56E5282E
Copy CRC 56E5282E
Copy OK
No errors occurred
AccurateRip summary
Track 1 accurately ripped (confidence 1) [C37DAE4A]
Track 2 accurately ripped (confidence 1) [8EA7ABF1]
Track 3 accurately ripped (confidence 1) [9DD39EE5]
Track 4 accurately ripped (confidence 1) [05182325]
Track 5 accurately ripped (confidence 1) [8D969910]
Track 6 accurately ripped (confidence 1) [C8BA1D90]
Track 7 accurately ripped (confidence 1) [24528728]
All tracks accurately ripped
End of status report
 
Об альбоме
Рецензия (весьма комплиментарная):
 
Рецензия на allmusic.com
На альбоме Minga мастерство замечательного японского джазового композитора, аранжировщика и саксофониста Sachi Hayasaka вышло на совершенно новый уровень. Вместе с участниками своего постоянного квартета и с группой японских музыкантов, играющих не столько джаз, сколько фолк-музыку самых разных народов, она смогла встроить свои музыкальные настроения в доступный, великолепный и цельный контекст. Первым делом, ее квартет, и, прежде всего, басист Toshiki Nagata, — это ансамбль первоклассных исполнителей. Их сыгранность, в особенности гитариста Kido Natsuki и барабанящего на сабаре Wagane N'Diyae Rose, подобна морскому бризу в августовскую жару. Слушая этот альбом, стоит помнить о новаторской музыке Abdullah Ibrahim, Johnny Dyani, и Dudu Pukwana, Airto Moreira и Hermeto Pascoal. Hayasaka выбирает глубокий, многослойный подход к лиризму, который уходит корнями в южно-африканский городской джаз и в веселую угловатость бразильских джазовых экспериментов 1970-х. Источники вдохновения этого альбома кажутся очевидными, но музыкальный почерк несомненно принадлежит Sachi Hayasaka. Здесь нет обобщений и заимствований — это транскультурный джаз, в котором содержится широкое разнообразие новых возможностей. Это экзотическая музыка — но не экзотика. В ней сплелись элементы стольких культур и ритмов, мелодик, гармоник, хроматик и модальностей, что её невозможно отнести к какой-то одной категории. Вместе с тем, в этой музыке столько красоты и тепла, она обаятельна, душевна и лирична, что и свойственно высшим формам музыкального достижения.
by Thom Jurek
 
Состав
Sachi Hayasaka – alto saxophone; soprano saxophone; chorus
Kido Natsuki – acoustic guitar; electric guitar; bandolin
Nagata Toshiki – bass; percussion; voice; chorus
Yahiro Tomohiro – percussion; chorus
Ogimi Gen – percussion; chorus
Wagane Ndiaye Rose – sabar
Otaka Sizzle – voice
Данный рип с правильными настройками выкладываю на замену этого с согласия ziniker, автора прежней раздачи.
По всем вопросам пишите личное сообщение пользователю M0p94ok.
03:43
198
Нет комментариев. Ваш будет первым!