Вы используете незарегистрированную версию компонента "Вкладки"!

Поиск

(Avant-Garde Jazz / Modern Creative) Rempis Percussion Quartet - The Disappointment of Parsley - 2009, FLAC (tracks+.cue), lossless

(Avant-Garde Jazz / Modern Creative) Rempis Percussion Quartet - The Disappointment of Parsley - 2009, FLAC (tracks+.cue), lossless
Треклист:
Rempis Percussion Quartet - The Disappointment of Parsley
Жанр: Avant-Garde Jazz / Modern Creative
Лейбл: Not Two
Год выпуска : 2009
Аудио кодек: FLAC
Тип рипа: tracks+.cue
Битрейт аудио: lossless
Продолжительность: 00:46:44
Рип: What CD


01 - The Disappointment of Parsley (15:18)
02 - Zoni (6:56)
03 - C slash Sold at a Ten Percent Discount (24:30)

 
EAC
Exact Audio Copy V0.99 prebeta 4 from 23. January 2008
EAC extraction logfile from 30. March 2009, 12:15
Rempis Percussion Quartet / The Disappointment of Parsley
Used drive : PLEXTOR DVDR PX-760A Adapter: 4 ID: 1
Read mode : Secure
Utilize accurate stream : Yes
Defeat audio cache : Yes
Make use of C2 pointers : No
Read offset correction : 30
Overread into Lead-In and Lead-Out : No
Fill up missing offset samples with silence : Yes
Delete leading and trailing silent blocks : No
Null samples used in CRC calculations : Yes
Used interface : Installed external ASPI interface
Gap handling : Appended to previous track
Used output format : User Defined Encoder
Selected bitrate : 768 kBit/s
Quality : High
Add ID3 tag : No
Command line compressor : C:\Program Files\Exact Audio Copy\FLAC\FLAC.EXE
Additional command line options : -8 -V -T "ARTIST=%a" -T "TITLE=%t" -T "ALBUM=%g" -T "DATE=%y" -T "TRACKNUMBER=%n" -T "TOTALTRACKS=%x" -T "GENRE=%m" -T "ALBUMARTIST=%v" -T "ALBUM ARTIST=%v" -T "COMMENT=EAC V0.99 prebeta 4, Secure Mode, Test & Copy, Accurat
TOC of the extracted CD
Track | Start | Length | Start sector | End sector
---------------------------------------------------------
1 | 0:00.00 | 15:18.00 | 0 | 68849
2 | 15:18.00 | 6:56.00 | 68850 | 100049
3 | 22:14.00 | 24:30.00 | 100050 | 210299
Track 1
Filename M:\to upload\16\Rempis Percussion Quartet - The Disappointment of Parsley (2009) [FLAC]\1\01 - The Disappointment of Parsley.wav
Pre-gap length 0:00:02.00
Peak level 87.0 %
Track quality 100.0 %
Test CRC 79048889
Copy CRC 79048889
Track not present in AccurateRip database
Copy OK
Track 2
Filename M:\to upload\16\Rempis Percussion Quartet - The Disappointment of Parsley (2009) [FLAC]\1\02 - Zoni.wav
Pre-gap length 0:00:02.00
Peak level 76.7 %
Track quality 100.0 %
Test CRC E12FFBA3
Copy CRC E12FFBA3
Track not present in AccurateRip database
Copy OK
Track 3
Filename M:\to upload\16\Rempis Percussion Quartet - The Disappointment of Parsley (2009) [FLAC]\1\03 - C slash Sold at a Ten Percent Discount.wav
Peak level 89.1 %
Track quality 100.0 %
Test CRC B339BEC7
Copy CRC B339BEC7
Track not present in AccurateRip database
Copy OK
None of the tracks are present in the AccurateRip database
No errors occurred
End of status report
 
CUE
REM GENRE Jazz
REM DATE 2009
REM DISCID 1A0AF403
REM COMMENT "ExactAudioCopy v0.99pb4"
PERFORMER "Rempis Percussion Quartet"
TITLE "The Disappointment of Parsley"
FILE "01 - The Disappointment of Parsley.wav" WAVE
TRACK 01 AUDIO
TITLE "The Disappointment of Parsley"
PERFORMER "Rempis Percussion Quartet"
INDEX 01 00:00:00
TRACK 02 AUDIO
TITLE "Zoni"
PERFORMER "Rempis Percussion Quartet"
INDEX 00 15:16:00
FILE "02 - Zoni.wav" WAVE
INDEX 01 00:00:00
FILE "03 - C slash Sold at a Ten Percent Discount.wav" WAVE
TRACK 03 AUDIO
TITLE "C slash Sold at a Ten Percent Discount"
PERFORMER "Rempis Percussion Quartet"
INDEX 01 00:00:00
Any questions -> support@pro-jazz.com. По всем вопросам пишите -> support@pro-jazz.com
12:32
145
Нет комментариев. Ваш будет первым!