Вы используете незарегистрированную версию компонента "Вкладки"!

Поиск

(Avant-Garde Jazz, Modern Creative) Rembrandt Frerichs - Self Portrait - 2007, FLAC (tracks+.cue), lossless

(Avant-Garde Jazz, Modern Creative) Rembrandt Frerichs - Self Portrait - 2007, FLAC (tracks+.cue), lossless
Треклист:
•Rembrandt Frerichs - Self Portrait•
Жанр: Avant-Garde Jazz, Modern Creative
Страна-производитель диска: Netherlands
Год издания диска: 2007
Аудиокодек: FLAC (*.flac)
Тип рипа: tracks+.cue
Битрейт аудио: lossless
Продолжительность: 01:00:27
Источник (релизер): Рип с диска.
Наличие сканов в содержимом раздачи: да
Треклист:
01. New Chorale
02. Sao Paulo
03. Bonuskaart
04. Stil Leven
05. Self Portrait
06. Song for Vinsent
07. Impraha
08. Volksweisje
09. Cortijo Opazo
10. Evangelie
11. Sketch on November
Personnel:
Rembrandt Frerichs - p,shrutibox
Jan Menu - ss,ts
Uli Glaszmann - b
Gulli Gudmundsson - b
Vinsent Planjer - dr
 
Лог создания рипа
Exact Audio Copy V1.0 beta 3 from 29. August 2011
Отчёт EAC об извлечении, выполненном 10. января 2012, 19:46
Rembrandt Frerichs / Self Portrait
Дисковод: Optiarc DVD RW AD-5200A Adapter: 0 ID: 1
Режим чтения : Достоверность
Использование точного потока : Да
Отключение кэша аудио : Да
Использование указателей C2 : Нет
Коррекция смещения при чтении : 48
Способность читать области Lead-in и Lead-out : Нет
Заполнение пропущенных сэмплов тишиной : Да
Удаление блоков с тишиной в начале и конце : Нет
При вычислениях CRC использовались нулевые сэмплы : Да
Интерфейс : Установленный внешний ASPI-интерфейс
Обработка зазоров : Добавлено к предыдущему треку
Выходной формат : Пользовательский кодировщик
Выбранный битрейт : 128 kBit/s
Качество : Высокий
Добавление ID3-тега : Нет
Утилита сжатия : C:\Program Files\Exact Audio Copy\Flac\flac.exe
Дополнительные параметры : -V -8 -T "Genre=%genre%" -T "Artist=%artist%" -T "Title=%title%" -T "Album=%albumtitle%" -T "Date=%year%" -T "Tracknumber=%tracknr%" -T "Comment=%comment%" %source%
TOC извлечённого CD
Трек | Старт | Длительность | Начальный сектор | Конечный сектор
---------------------------------------------------------------------
1 | 0:00.00 | 4:58.53 | 0 | 22402
2 | 4:58.53 | 8:46.15 | 22403 | 61867
3 | 13:44.68 | 6:24.12 | 61868 | 90679
4 | 20:09.05 | 5:59.12 | 90680 | 117616
5 | 26:08.17 | 4:31.21 | 117617 | 137962
6 | 30:39.38 | 5:30.67 | 137963 | 162779
7 | 36:10.30 | 2:40.51 | 162780 | 174830
8 | 38:51.06 | 3:36.04 | 174831 | 191034
9 | 42:27.10 | 7:04.71 | 191035 | 222905
10 | 49:32.06 | 5:13.24 | 222906 | 246404
11 | 54:45.30 | 5:42.01 | 246405 | 272055
Трек 1
Имя файла F:\2007.Rembrandt Frerichs - Self Portrait\01. New Chorale.wav
Длина предзазора 0:00:02.00
Пиковый уровень 96.6 %
Скорость извлечения 2.3 X
Качество трека 100.0 %
CRC теста 0D5B0BA5
CRC копии 0D5B0BA5
Точное извлечение (достоверность 2) [DDE98FBE] (AR v1)
Копирование... OK
Трек 2
Имя файла F:\2007.Rembrandt Frerichs - Self Portrait\02. Sao Paulo.wav
Длина предзазора 0:00:02.00
Пиковый уровень 96.6 %
Скорость извлечения 2.7 X
Качество трека 99.9 %
CRC теста 5182DC4F
CRC копии 5182DC4F
Точное извлечение (достоверность 2) [732B13CB] (AR v1)
Копирование... OK
Трек 3
Имя файла F:\2007.Rembrandt Frerichs - Self Portrait\03. Bonuskaart.wav
Длина предзазора 0:00:02.00
Пиковый уровень 97.0 %
Скорость извлечения 3.2 X
Качество трека 100.0 %
CRC теста 410BE8C2
CRC копии 410BE8C2
Точное извлечение (достоверность 2) [3747DEBA] (AR v1)
Копирование... OK
Трек 4
Имя файла F:\2007.Rembrandt Frerichs - Self Portrait\04. Stil Leven.wav
Длина предзазора 0:00:02.00
Пиковый уровень 99.5 %
Скорость извлечения 3.4 X
Качество трека 100.0 %
CRC теста 71059983
CRC копии 71059983
Точное извлечение (достоверность 2) [9605F4E8] (AR v1)
Копирование... OK
Трек 5
Имя файла F:\2007.Rembrandt Frerichs - Self Portrait\05. Self Portrait.wav
Длина предзазора 0:00:02.00
Пиковый уровень 96.6 %
Скорость извлечения 3.5 X
Качество трека 100.0 %
CRC теста 0BB63395
CRC копии 0BB63395
Точное извлечение (достоверность 2) [9B3975F7] (AR v1)
Копирование... OK
Трек 6
Имя файла F:\2007.Rembrandt Frerichs - Self Portrait\06. Song for Vinsent.wav
Длина предзазора 0:00:02.00
Пиковый уровень 96.6 %
Скорость извлечения 3.6 X
Качество трека 100.0 %
CRC теста 9952E81E
CRC копии 9952E81E
Точное извлечение (достоверность 2) [9F3D9BF5] (AR v1)
Копирование... OK
Трек 7
Имя файла F:\2007.Rembrandt Frerichs - Self Portrait\07. Impraha.wav
Длина предзазора 0:00:02.00
Пиковый уровень 96.6 %
Скорость извлечения 2.8 X
Качество трека 99.9 %
CRC теста 81D34142
CRC копии 81D34142
Точное извлечение (достоверность 2) [BA84C7AB] (AR v1)
Копирование... OK
Трек 8
Имя файла F:\2007.Rembrandt Frerichs - Self Portrait\08. Volksweisje.wav
Длина предзазора 0:00:02.00
Пиковый уровень 96.6 %
Скорость извлечения 3.4 X
Качество трека 100.0 %
CRC теста 90E847AF
CRC копии 90E847AF
Точное извлечение (достоверность 2) [4E7279A4] (AR v1)
Копирование... OK
Трек 9
Имя файла F:\2007.Rembrandt Frerichs - Self Portrait\09. Cortijo Opazo.wav
Длина предзазора 0:00:02.00
Пиковый уровень 85.8 %
Скорость извлечения 3.4 X
Качество трека 99.9 %
CRC теста BAE47EA7
CRC копии BAE47EA7
Точное извлечение (достоверность 2) [3B8A331E] (AR v1)
Копирование... OK
Трек 10
Имя файла F:\2007.Rembrandt Frerichs - Self Portrait\10. Evangelie.wav
Длина предзазора 0:00:02.00
Пиковый уровень 90.5 %
Скорость извлечения 3.6 X
Качество трека 100.0 %
CRC теста 60BFFA96
CRC копии 60BFFA96
Точное извлечение (достоверность 2) [0CF104D0] (AR v1)
Копирование... OK
Трек 11
Имя файла F:\2007.Rembrandt Frerichs - Self Portrait\11. Sketch on November.wav
Длина предзазора 0:00:02.00
Пиковый уровень 100.0 %
Скорость извлечения 3.6 X
Качество трека 100.0 %
CRC теста 69E802FD
CRC копии 69E802FD
Точное извлечение (достоверность 2) [DCD78758] (AR v1)
Копирование... OK
Все треки извлечены точно
Ошибок не произошло
Конец отчёта
==== Контрольная сумма отчёта 103BD647A0A6042E83B16572AA5044AA45F2C75983C5BDD22636772AC1E3A96C ====
 
Содержание индексной карты (.CUE)
REM GENRE Avantgarde
REM DATE 2007
REM DISCID 8A0E2B0B
REM COMMENT "ExactAudioCopy v1.0b3"
PERFORMER "Rembrandt Frerichs"
TITLE "Self Portrait"
FILE "01. New Chorale.wav" WAVE
TRACK 01 AUDIO
TITLE "New Chorale"
PERFORMER "Rembrandt Frerichs"
ISRC NLAI20700001
INDEX 01 00:00:00
TRACK 02 AUDIO
TITLE "Sao Paulo"
PERFORMER "Rembrandt Frerichs"
ISRC NLAI20700002
INDEX 00 04:56:53
FILE "02. Sao Paulo.wav" WAVE
INDEX 01 00:00:00
TRACK 03 AUDIO
TITLE "Bonuskaart"
PERFORMER "Rembrandt Frerichs"
ISRC NLAI20700003
INDEX 00 08:44:15
FILE "03. Bonuskaart.wav" WAVE
INDEX 01 00:00:00
TRACK 04 AUDIO
TITLE "Stil Leven"
PERFORMER "Rembrandt Frerichs"
ISRC NLAI20700004
INDEX 00 06:22:12
FILE "04. Stil Leven.wav" WAVE
INDEX 01 00:00:00
TRACK 05 AUDIO
TITLE "Self Portrait"
PERFORMER "Rembrandt Frerichs"
ISRC NLAI20700005
INDEX 00 05:57:12
FILE "05. Self Portrait.wav" WAVE
INDEX 01 00:00:00
TRACK 06 AUDIO
TITLE "Song for Vinsent"
PERFORMER "Rembrandt Frerichs"
ISRC NLAI20700006
INDEX 00 04:29:21
FILE "06. Song for Vinsent.wav" WAVE
INDEX 01 00:00:00
TRACK 07 AUDIO
TITLE "Impraha"
PERFORMER "Rembrandt Frerichs"
ISRC NLAI20700007
INDEX 00 05:28:67
FILE "07. Impraha.wav" WAVE
INDEX 01 00:00:00
TRACK 08 AUDIO
TITLE "Volksweisje"
PERFORMER "Rembrandt Frerichs"
ISRC NLAI20700008
INDEX 00 02:38:51
FILE "08. Volksweisje.wav" WAVE
INDEX 01 00:00:00
TRACK 09 AUDIO
TITLE "Cortijo Opazo"
PERFORMER "Rembrandt Frerichs"
ISRC NLAI20700009
INDEX 00 03:34:04
FILE "09. Cortijo Opazo.wav" WAVE
INDEX 01 00:00:00
TRACK 10 AUDIO
TITLE "Evangelie"
PERFORMER "Rembrandt Frerichs"
ISRC NLAI20700010
INDEX 00 07:02:71
FILE "10. Evangelie.wav" WAVE
INDEX 01 00:00:00
TRACK 11 AUDIO
TITLE "Sketch on November"
PERFORMER "Rembrandt Frerichs"
ISRC NLAI20700011
INDEX 00 05:11:24
FILE "11. Sketch on November.wav" WAVE
INDEX 01 00:00:00
Any questions -> support@pro-jazz.com. По всем вопросам пишите -> support@pro-jazz.com
20:56
155
Нет комментариев. Ваш будет первым!