Вы используете незарегистрированную версию компонента "Вкладки"!

Поиск

(Avant-Garde Jazz / Modern Creative / Post-Bop) Ab Baars Trio & Guests - Party At The Bimhuis - 2003, FLAC (image+.cue), lossless

(Avant-Garde Jazz / Modern Creative / Post-Bop) Ab Baars Trio & Guests - Party At The Bimhuis - 2003, FLAC (image+.cue), lossless
Треклист:
Ab Baars Trio & Guests - Party At The Bimhuis
Жанр: Avant-Garde Jazz / Modern Creative / Post-Bop
Год выпуска диска: 2003
Аудио кодек: FLAC
Тип рипа: image+.cue
Битрейт аудио: lossless
Продолжительность: 55:18
Трэклист:
 
скрытый текст
1.3900 Carol Court 5:18
2.GF 6:23
3.Indiaan 5:55
4.Party Talk, Pt. 1 5:22
5.A Portrait of Roswell Rudd 7:19
6.Party Talk, Pt. 2 2:02
7.Von 7:07
8.Party Talk, Pt. 3 2:09
9.Whisper-Soft Horsemeat 0:39
10.Reflections 8:03
11.Enter from the East 4:54
Доп. информация:
 
Line-up
Ab Baars Clarinet, Sax (Tenor)
Wilbert de Joode Bass, Double Bass
Ig Henneman Viola
Guus Janssen Piano
Misha Mengelberg Piano
Martin van Duynhoven Drums
http://www.allmusic.com/cg/amg.dll?p=amg&sql=10:dbftxqlaldde~T0
Рип с оригинального диска из собственной коллекции, сканы прилагаются.
 
Отчёт EAC
Exact Audio Copy V0.99 prebeta 3 from 28. July 2007
Отчёт EAC об извлечении, выполненном 9. августа 2009, 15:23
Ab Baars Trio / Party at the Bimhuis
Дисковод: _NEC DVD_RW ND-3540A Adapter: 3 ID: 1
Режим чтения : Достоверность
Использование точного потока : Да
Отключение кэша аудио : Да
Использование указателей C2 : Нет
Коррекция смещения при чтении : 48
Способность читать области Lead-in и Lead-out : Нет
Заполнение пропущенных сэмплов тишиной : Да
Удаление блоков с тишиной в начале и конце : Нет
При вычислениях CRC использовались нулевые сэмплы : Да
Интерфейс : Установленный внешний ASPI-интерфейс
Выходной формат : Пользовательский кодировщик
Выбранный битрейт : 768 kBit/s
Качество : Высокий
Добавление ID3-тэга : Нет
Утилита сжатия : D:\БЫВШИЙ G\Program Files\Exact Audio Copy\FLAC\FLAC.EXE
Дополнительные параметры : -6 -V -T "ARTIST=%a" -T "TITLE=%t" -T "ALBUM=%g" -T "DATE=%y" -T "TRACKNUMBER=%n" -T "GENRE=%m" -T "COMMENT=%e" %s -o %d
TOC извлечённого CD
Трек | Старт | Длительность | Начальный сектор | Конечный сектор
---------------------------------------------------------------------
1 | 0:00.00 | 5:18.17 | 0 | 23866
2 | 5:18.17 | 6:23.31 | 23867 | 52622
3 | 11:41.48 | 5:55.36 | 52623 | 79283
4 | 17:37.09 | 5:22.57 | 79284 | 103490
5 | 22:59.66 | 7:19.48 | 103491 | 136463
6 | 30:19.39 | 2:02.03 | 136464 | 145616
7 | 32:21.42 | 7:07.71 | 145617 | 177712
8 | 39:29.38 | 2:09.72 | 177713 | 187459
9 | 41:39.35 | 0:39.25 | 187460 | 190409
10 | 42:18.60 | 8:03.15 | 190410 | 226649
11 | 50:22.00 | 4:54.57 | 226650 | 248756
Характеристики диапазона извлечения и сообщения об ошибках
Выбранный диапазон
Имя файла G:\Ab Baars Trio & Guests - Party At The Bimhuis\Ab Baars Trio - Party at the Bimhuis.wav
Пиковый уровень 100.0 %
Качество диапазона 100.0 %
CRC копии F7B3E7CC
Копирование... OK
Ошибок не произошло
Конец отчёта
Any questions -> support@pro-jazz.com. По всем вопросам пишите -> support@pro-jazz.com
13:21
157
Нет комментариев. Ваш будет первым!