Вы используете незарегистрированную версию компонента "Вкладки"!

Поиск

(Avant-Garde Jazz / Modern Creative / Piano) Misha Mengelberg (w. Greg Cohen & Ben Perowsky) - Senne Sing Song {Tzadik TZ 7613} - 2005, FLAC (image+.cue) lossless

(Avant-Garde Jazz / Modern Creative / Piano) Misha Mengelberg (w. Greg Cohen & Ben Perowsky) - Senne Sing Song {Tzadik TZ 7613} - 2005, FLAC (image+.cue) lossless
Треклист:
Misha Mengelberg - Senne Sing Song
Жанр: Avant-Garde Jazz / Modern Creative / Piano
Страна-производитель диска: USA
Год издания диска: 2005
Издатель (лейбл): Tzadik
Номер по каталогу: TZ 7613
Аудио кодек: FLAC (*.flac)
Тип рипа: image+.cue
Битрейт аудио: lossless
Продолжительность: 58:05
Источник (релизер): ruskaval
Наличие сканов в содержимом раздачи: да
Треклист:
1. Hydroxmas Tree Fuzz
2. We Are Going Out For Italian
3. Kwela P'Kwana
4. Blues For Piet
5. Reef Und Kneebus
6. Brozziman
7. Poor Wheel
8. Tieriogre
9. Senne Sing Song
Personnel:
Greg Cohen: Bass
Misha Mengelberg: Piano
Ben Perowsky: Drums
Recording information: Avatar Studio, New York, NY (04/25/2005).
 
Лог создания рипа (EAC Log)
Exact Audio Copy V1.0 beta 1 from 15. November 2010
EAC extraction logfile from 2. April 2011, 0:42
Misha Mengelberg / Senne Sing Song
Used drive : TSSTcorpCD/DVDW TS-H552L Adapter: 3 ID: 0
Read mode : Secure
Utilize accurate stream : Yes
Defeat audio cache : Yes
Make use of C2 pointers : No
Read offset correction : 6
Overread into Lead-In and Lead-Out : No
Fill up missing offset samples with silence : Yes
Delete leading and trailing silent blocks : No
Null samples used in CRC calculations : Yes
Used interface : Native Win32 interface for Win NT & 2000
Used output format : User Defined Encoder
Selected bitrate : 1024 kBit/s
Quality : High
Add ID3 tag : No
Command line compressor : C:\Program Files\Exact Audio Copy\Flac\flac.exe
Additional command line options : -5 -V -T "ARTIST=%a" -T "TITLE=%t" -T "ALBUM=%g" -T "DATE=%y" -T "TRACKNUMBER=%n" -T "TOTALTRACKS=%x" -T "GENRE=%m" -T "ALBUMARTIST=%v" -T "ALBUM ARTIST=%v" -T "COMMENT=EAC Secure Mode, Test & Copy, AccurateRip, FLAC -5" %s
TOC of the extracted CD
Track | Start | Length | Start sector | End sector
---------------------------------------------------------
1 | 0:00.00 | 6:23.27 | 0 | 28751
2 | 6:23.27 | 8:33.25 | 28752 | 67251
3 | 14:56.52 | 6:03.62 | 67252 | 94538
4 | 21:00.39 | 7:00.01 | 94539 | 126039
5 | 28:00.40 | 7:01.05 | 126040 | 157619
6 | 35:01.45 | 6:34.57 | 157620 | 187226
7 | 41:36.27 | 5:57.68 | 187227 | 214069
8 | 47:34.20 | 3:31.64 | 214070 | 229958
9 | 51:06.09 | 6:59.03 | 229959 | 261386
Range status and errors
Selected range
Filename E:\EAC\Misha Mengelberg - Senne Sing Song (2005) {Tzadik}\Misha Mengelberg - Senne Sing Song.wav
Peak level 98.8 %
Extraction speed 1.1 X
Range quality 99.9 %
Test CRC 7AB35A53
Copy CRC 7AB35A53
Copy OK
No errors occurred
AccurateRip summary
Track 1 accurately ripped (confidence 1) [D3014A84]
Track 2 accurately ripped (confidence 1) [4BF96B6C]
Track 3 accurately ripped (confidence 1) [B48FDF68]
Track 4 accurately ripped (confidence 1) [3D39FC46]
Track 5 accurately ripped (confidence 1) [706810FD]
Track 6 accurately ripped (confidence 1) [09FB4BDA]
Track 7 accurately ripped (confidence 1) [877B766D]
Track 8 accurately ripped (confidence 1) [43090906]
Track 9 accurately ripped (confidence 1) [1CA263A9]
All tracks accurately ripped
End of status report
==== Log checksum 28698DDA42ECA11D8EB818958A536F943BD6560D8ADFDF8771A19A34A2FB5242 ====
 
Содержание индексной карты (.CUE)
REM GENRE Jazz
REM DATE 2005
REM DISCID 8A0D9D09
REM COMMENT "ExactAudioCopy v1.0b1"
PERFORMER "Misha Mengelberg"
TITLE "Senne Sing Song"
FILE "Misha Mengelberg - Senne Sing Song.flac" WAVE
TRACK 01 AUDIO
TITLE "Hypo Xmas Tree Fuzz"
PERFORMER "Misha Mengelberg"
INDEX 01 00:00:00
TRACK 02 AUDIO
TITLE "We are Going Out for Italian"
PERFORMER "Misha Mengelberg"
INDEX 00 06:21:55
INDEX 01 06:23:27
TRACK 03 AUDIO
TITLE "Kwela P Kwana"
PERFORMER "Misha Mengelberg"
INDEX 00 14:54:37
INDEX 01 14:56:52
TRACK 04 AUDIO
TITLE "Blues for Piet"
PERFORMER "Misha Mengelberg"
INDEX 01 21:00:39
TRACK 05 AUDIO
TITLE "Reef und Kneebus"
PERFORMER "Misha Mengelberg"
INDEX 01 28:00:40
TRACK 06 AUDIO
TITLE "Brozziman"
PERFORMER "Misha Mengelberg"
INDEX 01 35:01:45
TRACK 07 AUDIO
TITLE "Poor Wheel"
PERFORMER "Misha Mengelberg"
INDEX 00 41:35:24
INDEX 01 41:36:27
TRACK 08 AUDIO
TITLE "Tieriogre"
PERFORMER "Misha Mengelberg"
INDEX 01 47:34:20
TRACK 09 AUDIO
TITLE "Senne Sing Song"
PERFORMER "Misha Mengelberg"
INDEX 01 51:06:09
 
Об исполнителе / альбоме
This 70th birthday tribute to Dutch pianist Misha Mengelberg opens with a track that appeared on the first album that he appeared on back in 1964, Eric Dolphy's Last Date (there it was entitled "Hypo Xmas Tree Fuzz"). The affectionate twiddle he inserts into the theme here is like a conniving wink to an old friend. On Senne Sing Song, his third John Zorn-produced trio album after 1994's Who's Bridge (Avant) and 1997's No Idea (DIW), Mengelberg is joined by the remarkably responsive rhythm team of bassist Greg Cohen and drummer Ben Perowsky.
Several Mengelberg "standards" appear ("Reef und Kneebus," "Brozziman"), plodding amiably along at the pianist's by-now-familiar if slightly stodgy mid-tempo. The element of surprise comes from the pianist's unerring ability to find and follow the right wrong notes; Mengelberg's music remains a quintessential example of how recognizable idioms -- from Baroque counterpoint to the Duke-ish left-hand thunks and Monk-ish whole-tone runs -- can be extended (and subverted) into something both musically profound and profoundly musical. ~ Dan Warburton”
 
Tzadik
Misha Mengelberg has been a central figure of the Dutch Jazz/Improvisers scene since the late 1950’s. A brilliant pianist, organizer, conceptualist, composer, dadaist and eccentric leader of the ICP Orchestra, he has been an inspiration and mentor to several generations of musicians worldwide. Following up on his acclaimed piano trio recordings for the Japanese label Avant back in the early 1990’s,Misha performs with the classic downtown rhythm section of Greg Cohen (Ornette Coleman, Masada) and Ben Perowsky (Uri Caine, John Scofield). Nine original compositions in a dynamic trio setting by one of the legendary figures of new music.
 
CD
По всем вопросам пишите личное сообщение пользователю M0p94ok.
10:37
196
Нет комментариев. Ваш будет первым!