Вы используете незарегистрированную версию компонента "Вкладки"!

Поиск

(Avant-Garde Jazz, Modern Creative) Maarten Altena - Cities & Streets - 1991, FLAC (tracks+.cue) lossless

(Avant-Garde Jazz, Modern Creative) Maarten Altena - Cities & Streets - 1991, FLAC (tracks+.cue) lossless
Треклист:
Maarten Altena - Cities & Streets
Жанр: Avant-Garde Jazz, Modern Creative
Страна-производитель диска: Switzerland
Год издания диска: 1991
Издатель (лейбл): Hat Hut Records
Номер по каталогу: hat ART CD 6082
Страна: Switzerland
Аудио кодек: FLAC (*.flac)
Тип рипа: tracks+.cue
Битрейт аудио: lossless
Продолжительность: 55:55
Источник (релизер): собственный рип с оригинального диска
Наличие сканов в содержимом раздачи: да
Треклист:
01. Prikkel (07.48)
02. Blauw beest (07.58)
03. Rij (07.44)
04. Slange (06.44)
05. Triptych (blues, manier, koraal) (12.15)
06. Echoes and shadows (04.34)
07. Rif (08.52)
 
Лог создания рипа
Exact Audio Copy V0.99 prebeta 5 from 4. May 2009
EAC extraction logfile from 30. October 2010, 0:12
Maarten Altena / Cities & Streets
Used drive : TSSTcorpCDDVDW SH-S222A Adapter: 1 ID: 0
Read mode : Secure
Utilize accurate stream : Yes
Defeat audio cache : Yes
Make use of C2 pointers : No
Read offset correction : 6
Overread into Lead-In and Lead-Out : No
Fill up missing offset samples with silence : Yes
Delete leading and trailing silent blocks : No
Null samples used in CRC calculations : Yes
Used interface : Native Win32 interface for Win NT & 2000
Gap handling : Appended to previous track
Used output format : User Defined Encoder
Selected bitrate : 768 kBit/s
Quality : High
Add ID3 tag : No
Command line compressor : C:\tool\Audio\Exact Audio Copy\FLAC\FLAC.EXE
Additional command line options : -V -8 -T "ARTIST=%a" -T "TITLE=%t" -T "ALBUM=%g" -T "TRACKNUMBER=%n" -T "GENRE=%m" %s
TOC of the extracted CD
Track | Start | Length | Start sector | End sector
---------------------------------------------------------
1 | 0:00.00 | 7:48.62 | 0 | 35161
2 | 7:48.62 | 7:58.00 | 35162 | 71011
3 | 15:46.62 | 7:44.00 | 71012 | 105811
4 | 23:30.62 | 6:44.00 | 105812 | 136111
5 | 30:14.62 | 12:14.50 | 136112 | 191211
6 | 42:29.37 | 4:34.00 | 191212 | 211761
7 | 47:03.37 | 8:52.38 | 211762 | 251699
Track 1
Filename C:\! RUTRACKER\ru up\Maarten Altena - Cities & Streets\01 - Prikkel.wav
Pre-gap length 0:00:02.00
Peak level 100.0 %
Track quality 99.9 %
Test CRC 96BC732B
Copy CRC 96BC732B
Track not present in AccurateRip database
Copy OK
Track 2
Filename C:\! RUTRACKER\ru up\Maarten Altena - Cities & Streets\02 - Blauw Beest.wav
Peak level 99.8 %
Track quality 100.0 %
Test CRC AB86D941
Copy CRC AB86D941
Track not present in AccurateRip database
Copy OK
Track 3
Filename C:\! RUTRACKER\ru up\Maarten Altena - Cities & Streets\03 - Rij.wav
Peak level 99.4 %
Track quality 100.0 %
Test CRC 71587AED
Copy CRC 71587AED
Track not present in AccurateRip database
Copy OK
Track 4
Filename C:\! RUTRACKER\ru up\Maarten Altena - Cities & Streets\04 - Slange.wav
Peak level 100.0 %
Track quality 99.9 %
Test CRC 179531A6
Copy CRC 179531A6
Track not present in AccurateRip database
Copy OK
Track 5
Filename C:\! RUTRACKER\ru up\Maarten Altena - Cities & Streets\05 - Triptych (Blues, Manier, Koraal).wav
Peak level 100.0 %
Track quality 100.0 %
Test CRC C831F927
Copy CRC C831F927
Track not present in AccurateRip database
Copy OK
Track 6
Filename C:\! RUTRACKER\ru up\Maarten Altena - Cities & Streets\06 - Echoes and Shadows.wav
Peak level 96.2 %
Track quality 100.0 %
Test CRC D4C7CAE5
Copy CRC D4C7CAE5
Track not present in AccurateRip database
Copy OK
Track 7
Filename C:\! RUTRACKER\ru up\Maarten Altena - Cities & Streets\07 - Rif.wav
Peak level 100.0 %
Track quality 100.0 %
Test CRC ABCD986F
Copy CRC ABCD986F
Track not present in AccurateRip database
Copy OK
None of the tracks are present in the AccurateRip database
No errors occurred
End of status report
 
Содержание индексной карты (.CUE)
REM GENRE "Free Jazz"
REM DATE 1989
REM DISCID 580D1C07
REM COMMENT "ExactAudioCopy v0.99pb5"
CATALOG 0000000000000
PERFORMER "Maarten Altena"
TITLE "Cities & Streets"
FILE "01 - Prikkel.wav" WAVE
TRACK 01 AUDIO
TITLE "Prikkel"
PERFORMER "Maarten Altena"
INDEX 01 00:00:00
FILE "02 - Blauw Beest.wav" WAVE
TRACK 02 AUDIO
TITLE "Blauw Beest"
PERFORMER "Maarten Altena"
INDEX 01 00:00:00
FILE "03 - Rij.wav" WAVE
TRACK 03 AUDIO
TITLE "Rij"
PERFORMER "Maarten Altena"
INDEX 01 00:00:00
FILE "04 - Slange.wav" WAVE
TRACK 04 AUDIO
TITLE "Slange"
PERFORMER "Maarten Altena"
INDEX 01 00:00:00
FILE "05 - Triptych (Blues, Manier, Koraal).wav" WAVE
TRACK 05 AUDIO
TITLE "Triptych (Blues, Manier, Koraal)"
PERFORMER "Maarten Altena"
INDEX 01 00:00:00
FILE "06 - Echoes and Shadows.wav" WAVE
TRACK 06 AUDIO
TITLE "Echoes and Shadows"
PERFORMER "Maarten Altena"
INDEX 01 00:00:00
FILE "07 - Rif.wav" WAVE
TRACK 07 AUDIO
TITLE "Rif"
PERFORMER "Maarten Altena"
INDEX 01 00:00:00
Доп. информация:
Recorded by Peter Pfister at Radio DRS Zürich on 9-10 October 1989.
Cover art Aki Kuroda.
 
Об исполнителе (группе)
One of the early European free jazz bassists of note, Altena first came to the attention of American audiences via alto saxophonist Marion Brown's 1967 album Porto Novo (the album also featured Dutch drummer Han Bennink). Altena studied music at the Sweelinck Conservatory in Amsterdam from 1961-1967. His first recording was made in 1967 as a member of saxophonist Theo Loevendie's jazz group (Loevendie subsequently embarked on a more successful career as a composer of classical works). In the '60s and '70s, Altena played with soprano saxophonist Steve Lacy, saxophonist/composer Willem Breuker, pianist Guus Janssen, and guitarist Derek Bailey. Altena participated in many of Bailey's Company projects during the '70s. Beginning in the mid-'70s, Altena worked more frequently as a leader, recording mostly for his own Claxon label. Besides leading his own ensembles, Altena has also worked extensively as a soloist. In recent years, Altena's more notable collaborators have included drummer Gerry Hemingway, trombonist Walter Wierbos, percussionist Paul Lovens, and bassist Peter Kowald, to name only a few. In addition to his many self-produced albums, Altena has also recorded for the hatArt, Bimhuis, and Splasc(h) labels, among others.
 
Состав
Maarten Altena - bass, composer
Peter van Bergen - tenor saxohone, bass clarinet
Marc Charig - trumpet, alto horn
Christel Postma - violin
Michiel Sheen - piano
Michael Moore - alto saxophone, clarinet, bass clarinet
Michael Vatcher - percussion
Wolter Wierbos - trombone
Any questions -> support@pro-jazz.com. По всем вопросам пишите -> support@pro-jazz.com
04:55
278
Нет комментариев. Ваш будет первым!